Tags
Language
Tags

Arabella Quartet - Saint-Georges: 6 Quartetto concertans (2022) [Official Digital Download 24/96]

Posted By: delpotro
Arabella Quartet - Saint-Georges: 6 Quartetto concertans (2022) [Official Digital Download 24/96]

Arabella Quartet - Saint-Georges: 6 Quartetto concertans (2022)
FLAC (tracks) 24-bit/96 kHz | Front Cover & Digital Booklet | Time - 52:39 minutes | 1,03 GB
Classical | Label: Naxos Records, Official Digital Download

A brilliant swordsman, athlete, violin virtuoso and composer, Joseph Bologne, Chevalier de Saint-Georges might well lay claim to being the most talented figure in an age of remarkable individuals. The string quartet was still in its infancy in France in the 1770s, but while these pieces are small in scale they are exceptionally rewarding. Saint-Georges appreciated the intimate nature of this genre, avoiding overt soloistic virtuosity and exploring chamber music timbres, amply demonstrating his rich lyrical gifts and a natural ability to delight performers and audiences alike.

Tracklist:
1. 6 Quartetto concertans, No. 1 in B-Flat Major: I. Allegro assai (04:31)
2. 6 Quartetto concertans, No. 1 in B-Flat Major: II. Gratioso (02:49)
3. 6 Quartetto concertans, No. 2 in G Minor: I. Adagio (04:47)
4. 6 Quartetto concertans, No. 2 in G Minor: II. Aria andantino (05:27)
5. 6 Quartetto concertans, No. 3 in C Major: I. Allegro (05:23)
6. 6 Quartetto concertans, No. 3 in C Major: II. Rondeau. Moderato (02:06)
7. 6 Quartetto concertans, No. 4 in F Major: I. Allegro (04:46)
8. 6 Quartetto concertans, No. 4 in F Major: II. Rondeau (02:07)
9. 6 Quartetto concertans, No. 5 in G Major: I. Allegro assai (05:48)
10. 6 Quartetto concertans, No. 5 in G Major: II. Gratioso (04:58)
11. 6 Quartetto concertans, No. 6 in B-Flat Major: I. Allegro (06:48)
12. 6 Quartetto concertans, No. 6 in B-Flat Major: II. Aria con variazione (03:04)

foobar2000 1.4.1 / Dynamic Range Meter 1.1.1
log date: 2022-05-24 18:33:47

––––––––––––––––––––––––––––––––––––––––
Analyzed: Arabella Quartet / Saint-Georges: 6 Quartetto concertans
––––––––––––––––––––––––––––––––––––––––

DR Peak RMS Duration Track
––––––––––––––––––––––––––––––––––––––––
DR13 -0.32 dB -16.65 dB 4:32 01-Saint-Georges: 6 Quartetto concertans, No. 1 in B-Flat Major: I. Allegro assai
DR12 -0.32 dB -18.50 dB 2:49 02-Saint-Georges: 6 Quartetto concertans, No. 1 in B-Flat Major: II. Gratioso
DR13 -0.32 dB -19.05 dB 4:48 03-Saint-Georges: 6 Quartetto concertans, No. 2 in G Minor: I. Adagio
DR14 -0.69 dB -18.43 dB 5:27 04-Saint-Georges: 6 Quartetto concertans, No. 2 in G Minor: II. Aria andantino
DR13 -0.32 dB -16.42 dB 5:23 05-Saint-Georges: 6 Quartetto concertans, No. 3 in C Major: I. Allegro
DR13 -0.32 dB -17.78 dB 2:07 06-Saint-Georges: 6 Quartetto concertans, No. 3 in C Major: II. Rondeau. Moderato
DR12 -0.32 dB -16.02 dB 4:47 07-Saint-Georges: 6 Quartetto concertans, No. 4 in F Major: I. Allegro
DR14 -0.32 dB -19.46 dB 2:08 08-Saint-Georges: 6 Quartetto concertans, No. 4 in F Major: II. Rondeau
DR14 -0.32 dB -17.16 dB 5:49 09-Saint-Georges: 6 Quartetto concertans, No. 5 in G Major: I. Allegro assai
DR14 -1.16 dB -19.50 dB 4:58 10-Saint-Georges: 6 Quartetto concertans, No. 5 in G Major: II. Gratioso
DR12 -0.32 dB -15.90 dB 6:48 11-Saint-Georges: 6 Quartetto concertans, No. 6 in B-Flat Major: I. Allegro
DR13 -0.32 dB -17.27 dB 3:04 12-Saint-Georges: 6 Quartetto concertans, No. 6 in B-Flat Major: II. Aria con variazione
––––––––––––––––––––––––––––––––––––––––

Number of tracks: 12
Official DR value: DR13

Samplerate: 96000 Hz
Channels: 2
Bits per sample: 24
Bitrate: 2771 kbps
Codec: FLAC
================================================================================


Thanks to the Original customer!