Tags
Language
Tags
March 2024
Su Mo Tu We Th Fr Sa
25 26 27 28 29 1 2
3 4 5 6 7 8 9
10 11 12 13 14 15 16
17 18 19 20 21 22 23
24 25 26 27 28 29 30
31 1 2 3 4 5 6

ZZ Ward - Dirty Shine (Dirty Deluxe) (2023) [Official Digital Download]

Posted By: pyatak
ZZ Ward - Dirty Shine (Dirty Deluxe) (2023) [Official Digital Download]

ZZ Ward - Dirty Shine (Dirty Deluxe) (2023) [Official Digital Download]
FLAC (tracks) 24-bit/44.1 kHz | Front Cover | Time - 51:30 minutes | 629 MB
Rock, Blues Rock, Soul | Studio Master, Official Digital Download

ZZ Ward, the genre-defying artist celebrated for her distinctive fusion of blues, hip-hop, pop, R&B, neo-soul, and rock, has exciting news to share with fans worldwide. Set to embark on a new chapter of her illustrious career, ZZ Ward proudly announces the release of her upcoming album, Dirty Shine, marking her debut as an independent artist. The album is scheduled to hit the airwaves on September 8th, under her very own label, Dirty Shine Records.

Dirty Shine is a captivating 11-song masterpiece, presenting an intoxicating blend of bold electronic textures, rugged hip-hop beats, fierce rhymes, and irresistible pop hooks. Infused with acoustic Delta blues riffs, soulful R&B melodies, and the mesmerizing allure of juke joint harmonica, the album epitomizes ZZ’s artistic evolution, embracing her newfound role as a mother and liberating herself from the confines of major record labels.

TRACKLIST

1. ZZ Ward - Welcome to Dirty Shine
2. ZZ Ward - Ride or Die
3. ZZ Ward - Fadeaway
4. ZZ Ward - On One
5. ZZ Ward - Slow Hum Hymnal
6. ZZ Ward - Dead or Alive
7. ZZ Ward - Forget About Us
8. ZZ Ward - Friends Like These
9. ZZ Ward - Baby Don't
10. ZZ Ward - North Bank Blues
11. ZZ Ward - OverdoZZe
12. ZZ Ward - Cut Me Loose
13. ZZ Ward - Tin Cups
14. ZZ Ward - Don't Let Me Down
15. ZZ Ward - Evil on the Inside
16. ZZ Ward - The Mend
17. ZZ Ward - The Dark (Dirty Shine Mix)
18. ZZ Ward - Ride or Die (Demo)

foobar2000 1.6.2 / Dynamic Range Meter 1.1.1
log date: 2023-11-17 16:38:37

––––––––––––––––––––––––––––––––––––––––
Analyzed: ZZ Ward / Dirty Shine (Dirty Deluxe)
––––––––––––––––––––––––––––––––––––––––

DR Peak RMS Duration Track
––––––––––––––––––––––––––––––––––––––––
DR9 -0.12 dB -10.53 dB 0:42 01-Welcome to Dirty Shine
DR5 -0.15 dB -6.96 dB 3:51 02-Ride or Die
DR5 -0.15 dB -6.69 dB 3:47 03-Fadeaway
DR4 -0.05 dB -6.02 dB 3:04 04-On One
DR7 -0.12 dB -11.30 dB 1:07 05-Slow Hum Hymnal
DR6 -0.04 dB -7.80 dB 3:17 06-Dead or Alive
DR4 -0.06 dB -7.42 dB 2:44 07-Forget About Us
DR5 -0.15 dB -7.49 dB 3:28 08-Friends Like These
DR5 -0.12 dB -6.96 dB 3:09 09-Baby Don't
DR9 -0.15 dB -15.58 dB 0:42 10-North Bank Blues
DR5 -0.15 dB -6.99 dB 3:17 11-OverdoZZe
DR4 -0.15 dB -6.15 dB 3:03 12-Cut Me Loose
DR5 -0.29 dB -8.47 dB 3:00 13-Tin Cups
DR5 0.00 dB -6.99 dB 3:09 14-Don't Let Me Down
DR11 -0.15 dB -12.32 dB 3:10 18-Ride or Die (Demo)
––––––––––––––––––––––––––––––––––––––––

Number of tracks: 15
Official DR value: DR6

Samplerate: 44100 Hz
Channels: 2
Bits per sample: 24
Bitrate: 1532 kbps
Codec: FLAC
================================================================================

––––––––––––––––––––––––––––––––––––––––
Analyzed: ZZ Ward / Dirty Shine (Dirty Deluxe)
––––––––––––––––––––––––––––––––––––––––

DR Peak RMS Duration Track
––––––––––––––––––––––––––––––––––––––––
DR6 0.00 dB -7.98 dB 3:32 15-Evil on the Inside
DR6 0.00 dB -7.53 dB 3:37 16-The Mend
DR6 -0.20 dB -9.28 dB 2:51 17-The Dark (Dirty Shine Mix)
––––––––––––––––––––––––––––––––––––––––

Number of tracks: 3
Official DR value: DR6

Samplerate: 48000 Hz
Channels: 2
Bits per sample: 24
Bitrate: 1569 kbps
Codec: FLAC
================================================================================



Thanks to the Original customer.