V.A. - Stockfisch Records Art Of Recording Vol.2 (2015) [SACD-R][OF]

Posted By: Discograf_man
V.A. - Stockfisch Records Art Of Recording Vol.2 (2015) [SACD-R][OF]

V.A. - Stockfisch Records Art Of Recording Vol.2 (2015) [SACD-R][OF]
Folk, World, Country | SACD ISO: DSD64 2.0 > 1-bit/2.8224 MHz | 1.93 GB + 5% Recovery
Label: Stockfisch Records | Release Year: 2015

More and more music lovers are discovering the unique sound of a vinyl record. Stockfisch thought about whether it is possible just to make the sound creation factors of a vinyl record audible. A pressed record however, has many artifacts arising from the vinyl pressing i.e. distortion, rumble, groove noise, vertical and lateral aberrations, clicks, etc. and other artifacts that are detrimental to a good sound. Stockfisch calls their new production method 'DMM-CD'. With this solution, they can eradicate the aforementioned disadvantages of the pressed record - and yet still maintain the typical vinyl sound. With this new sophisticated process, a new digital recording media (DMM-CD) has emerged retaining the original sound of a Vinyl-LP but without the unwanted side effects. The DMM-CD/SACD gives you the direct sound of the DMM Copper cut - without having to go through the stages of pressing a record. The Stockfisch DMM-CD/SACD Vol. 2 contains 12 tracks from such well-known Stockfisch Artists as Chris Jones, Allan Taylor, Carrie Newcomer, David Roth and many more.
New audio format. Hybrid DMM-CD/SACD. Listen to a perfect vinyl sound in pristine DSD quality on hybrid SACD.
Tracklist:
01. Carrie Newcomer: The Slender Thread
02. Allan Taylor: Endless Highway
03. Paul Stephenson: Girl With A Mirror
04. Sara K. Feat. Chris Jones: What's A Little More Rain (Live 2001)
05. Ranagri: Tremors
06. David Munyon: Prayers Of Elvis Presley
07. Tony Christie & Ranagri: Wild Mountain Thyme
08. David Roth: Be Kind To Yourself
09. Carl Cleves & Parissa Bouas: Nothing's Gonna Last Forever
10. Paul O'Brien: Big Yellow Taxi
11. Steve Strauss: Sea Of Dreams
12. Kerstin Blodig: Out of the Woods (Impro)

V.A. - Stockfisch Records Art Of Recording Vol.2 (2015) [SACD-R][OF]

V.A. - Stockfisch Records Art Of Recording Vol.2 (2015) [SACD-R][OF]

16908421[0x1020085]: SACD-Ripper Version 0.37
16908421[0x1020085]: config: 00 00 00 0c 00 00 00 00 ff 41 00 04 00 00 00 00
16908421[0x1020085]: config: 00 00 00 00 00 00 00 00 00 00 00 00 00 00 00 00
16908421[0x1020085]: config: 00 00 00 00 00 00 00 00 00 00 00 00 00 00 00 00
16908421[0x1020085]: config: 00 00 00 00 00 00 00 00 00 00 00 00 00 00 00 00
16908421[0x1020085]: device_info: 75 6e 6e 61 6d 65 5c 10 80 00 00 00 00 52 d0 00
16908421[0x1020085]: device_info: 80 00 00 00 10 12 de 70 80 00 00 00 00 58 14 00
16908421[0x1020085]: device_info: 00 00 00 00 00 00 00 00 00 00 00 00 7f ff ff ff
16908421[0x1020085]: device_info: 00 00 08 00 00 00 00 01 00 01 01 00 00 00 00 01
16908421[0x1020085]: disc inserted..
16908421[0x1020085]: config: 00 00 00 0c 00 00 00 10 ff 41 01 04 00 00 00 00
16908421[0x1020085]: config: 00 00 00 00 00 00 00 00 00 00 00 00 00 00 00 00
16908421[0x1020085]: config: 00 00 00 00 00 00 00 00 00 00 00 00 00 00 00 00
16908421[0x1020085]: config: 00 00 00 00 00 00 00 00 00 00 00 00 00 00 00 00
16908421[0x1020085]: device_info: 75 6e 6e 61 6d 65 5c 10 80 00 00 00 00 52 d0 00
16908421[0x1020085]: device_info: 80 00 00 00 10 12 de 70 80 00 00 00 00 58 14 00
16908421[0x1020085]: device_info: 00 00 00 00 00 00 00 00 00 00 00 00 00 0f 84 e2
16908421[0x1020085]: device_info: 00 00 08 00 00 00 00 01 00 01 01 00 00 00 00 01
16908421[0x1020085]: Album Title: The Stockfisch DMM-CD/SACD Vol.2
16908421[0x1020085]: Album Artist: Various Artists
16908421[0x1020085]: Disc Version: 01.20
16908421[0x1020085]: config: 00 00 00 0c 00 00 00 10 ff 41 01 04 00 00 00 00
16908421[0x1020085]: config: 00 00 00 00 00 00 00 00 00 00 00 00 00 00 00 00
16908421[0x1020085]: config: 00 00 00 00 00 00 00 00 00 00 00 00 00 00 00 00
16908421[0x1020085]: config: 00 00 00 00 00 00 00 00 00 00 00 00 00 00 00 00
16908421[0x1020085]: device_info: 75 6e 6e 61 6d 65 5c 10 80 00 00 00 00 52 d0 00
16908421[0x1020085]: device_info: 80 00 00 00 10 12 de 70 80 00 00 00 00 58 14 00
16908421[0x1020085]: device_info: 00 00 00 00 00 00 00 00 00 00 00 00 00 0f 84 e2
16908421[0x1020085]: device_info: 00 00 08 00 00 00 00 01 00 01 01 00 00 00 00 01
16908421[0x1020085]: succeeded. raw_spu number is 0
16908421[0x1020085]: succeeded. entry d0
16908421[0x1020085]: Establishing the interrupt tag on the interrupt PPU thread.
16908421[0x1020085]: ioctl_report_key1[45023901] 0
16908421[0x1020085]: sac_exec_generate_key 0 c9 0
16908421[0x1020085]: ioctl_send_key[2] c9 0
16908421[0x1020085]: ioctl_report_key[2] c8 0
16908421[0x1020085]: sac_exec_validate_key_1[0]
16908421[0x1020085]: sac_exec_generate_key_2[ae] 0
16908421[0x1020085]: ioctl_send_key[3] ae 0
16908421[0x1020085]: ioctl_report_key[3] b0 0
16908421[0x1020085]: sac_exec_validate_key_2[0]
16908421[0x1020085]: ioctl_report_key[4] 30 0
16908421[0x1020085]: sac_exec_validate_key_3[0]
16908421[0x1020085]: ioctl_report_finish [0xff] 0
16908421[0x1020085]: Queuing raw: /dev_usb000/Various Artists - The Stockfisch DMM-CD SACD Vol.2.iso, start_lsn: 0, length_lsn: 1017058

foobar2000 1.3.13 / Замер динамического диапазона (DR) 1.1.1
Дата отчёта: 2017-01-10 19:23:09

––––––––––––––––––––––––––––––––––––––––
Анализ: Various Artists / The Stockfisch DMM-CD/SACD Vol.2
––––––––––––––––––––––––––––––––––––––––

DR Пики RMS Продолжительность трека
––––––––––––––––––––––––––––––––––––––––
DR10 -7.79 дБ -20.36 дБ 3:34 01-The Slender Thread
DR10 -6.97 дБ -19.54 дБ 4:49 02-Endless Highway
DR9 -7.02 дБ -18.80 дБ 4:07 03-Girl With A Mirror
DR10 -7.86 дБ -20.75 дБ 4:48 04-What's A Little More Rain (LIVE 2001)
DR10 -5.95 дБ -18.43 дБ 4:03 05-Tremors
DR11 -7.66 дБ -21.51 дБ 5:23 06-Prayers Of Elvis Presley
DR10 -7.17 дБ -19.49 дБ 2:27 07-Wild Mountain Thyme
DR10 -8.87 дБ -20.51 дБ 3:17 08-Be Kind To Yourself
DR9 -9.49 дБ -21.07 дБ 4:26 09-Nothing´s Gonna Last Forever
DR10 -6.37 дБ -19.06 дБ 2:59 10-Big Yellow Taxi
DR11 -7.09 дБ -20.84 дБ 3:30 11-Sea Of Dreams
DR11 -7.74 дБ -22.06 дБ 4:52 12-Out of the Woods (Impro 2)
––––––––––––––––––––––––––––––––––––––––

Количество треков: 12
Реальные значения DR: DR10

Частота: 2822400 Гц / Частота PCM: 44100 Гц
Каналов: 2
Разрядность: 24
Битрейт: 5645 кбит/с
Кодек: DSD64
================================================================================

Thanks to the original customer