Tags
Language
Tags

VA - Lampe: The Dragon of Wantley (2022) [Official Digital Download]

Posted By: ciklon5
VA - Lampe: The Dragon of Wantley (2022) [Official Digital Download]

VA - Lampe: The Dragon of Wantley (2022) [Official Digital Download]
FLAC (tracks), Lossless [24bit-96kHz] | 1:47:28 | 1,95 Gb
Genre: Classical / Label: Resonus Classics

A rapacious dragon has been terrorising a Yorkshire village. Gubbins and his daughter Margery, together with Mauxalinda, decide to seek the help of Moore of Moore Hall. Moore needs persuading away from his beer but succumbs to Margery’s pleading, and her promises of love. Unfortunately, he had already promised to marry Mauxalinda, and so the love triangle has to be resolved in dramatic fashion before Moore heads out and defeats the dragon, restoring harmony and prosperity to the village.Following the BBC Music Magazine Opera Award for his recording of Malcolm Arnold’s The Dancing Master, conductor John Andrews returns with the world premiere professional recording of John Frederick Lampe’s (1703-1751) operatic comedy The Dragon of Wantley. With librettist Henry Carey, Lampe combines a first-rate score with a quintessentially English plot, told in a tone of earthy satire, pastiching opera’s conventions with skill and affection, but also a razor wit.

Track List:
CD1
1. The Dragon of Wantley, Act I: Overture (3:35)
2. The Dragon of Wantley, Act I: First & Second Tune (2:39)
3. The Dragon of Wantley, Act I: Fly, Neighbours, Fly, The Dragon’s Nigh (1:09)
4. The Dragon of Wantley, Act I: The Dragon’s March Crossing the Stage (0:37)
5. The Dragon of Wantley, Act I: What Wretched Havock Does This Dragon Make! (0:24)
6. The Dragon of Wantley, Act I: Poor Children Three, Devoured He (2:14)
7. The Dragon of Wantley, Act I: Houses and Churches, To Him are Geese and Turkies (2:41)
8. The Dragon of Wantley, Act I: O Father! (0:46)
9. The Dragon of Wantley, Act I: But to Hear the Children Mutter (4:25)
10. The Dragon of Wantley, Act I: This Dragon Very Modish (0:55)
11. The Dragon of Wantley, Act I: He’s a Man Ev’ry Inch, I Assure You (2:04)
12. The Dragon of Wantley, Act I: Let’s Go to His Dwelling (1:23)
13. The Dragon of Wantley, Act I: Symphony (1:14)
14. The Dragon of Wantley, Act I: Come, Friends, Let’s Circulate the Cheerful Glass (0:26)
15. The Dragon of Wantley, Act I: Zeno, Plato, Aristotle (4:46)
16. The Dragon of Wantley, Act I: O Save Us All! Moore of Moore Hall! (2:18)
17. The Dragon of Wantley, Act I: Gentle Knight! All Knights Exceeding (5:46)
18. The Dragon of Wantley, Act I: Her Looks Shoot Thro’ My Soul (1:10)
19. The Dragon of Wantley, Act I: If That’s All You Ask (3:53)
20. The Dragon of Wantley, Act I: A Forward Lady! (0:23)
21. The Dragon of Wantley, Act I: Let My Dearest Be Near Me (5:30)
22. The Dragon of Wantley, Act I: O Villain! Monster! Devil! Basely Base! (1:29)
23. The Dragon of Wantley, Act I: No Place shall conceal ‘em (2:13)
24. The Dragon of Wantley, Act I: By Jove! I'm Blown (0:55)
25. The Dragon of Wantley, Act I: By the Beer as Brown as Berry (2:12)
26. The Dragon of Wantley, Act I: But do you really love me? (0:22)
27. The Dragon of Wantley, Act I: Pigs Shall Not Be So Fond as We (4:13)

CD2
1. The Dragon of Wantley, Act II: Sure My Stays Will Burst With Sobbing (5:58)
2. The Dragon of Wantley, Act II: My Madge! My HoneySuckle, in the Dumps! (2:06)
3. The Dragon of Wantley, Act II: Insulting Gipsey, You’re Surely Tipsy (5:48)
4. The Dragon of Wantley, Act II: Lauk! What a Monstrous Tail our Cat Has Got (1:00)
5. The Dragon of Wantley, Act II: O Give Me Not Up To The Law (5:02)
6. The Dragon of Wantley, Act II: Come, come, forgive her! (0:15)
7. The Dragon of Wantley, Act II: Oh How Easy is a Woman (4:45)
8. The Dragon of Wantley, Act II: Now, Now or Never, Save us, Valiant Moore! (0:57)
9. The Dragon of Wantley, Act II: Fill the Mighty Flagon (1:49)
10. The Dragon of Wantley, Act III: One Buss, Dear Margery, and Then Away (0:31)
11. The Dragon of Wantley, Act III: Dragon! Thus I Dare Thee – It is Not Strength That Always Wins (4:39)
12. The Dragon of Wantley, Act III: Symphony – What Nasty Dog has Got Into the Well (0:56)
13. The Dragon of Wantley, Act III: Oh ho! Master Moore, You Son of a Whore (1:45)
14. The Dragon of Wantley, Act III: Battle Piece (1:22)
15. The Dragon of Wantley, Act III: Oh! Oh! The Devil Take Your Toe! (1:02)
16. The Dragon of Wantley, Act III: Oh, My Champion! How d'ye Do? (0:34)
17. The Dragon of Wantley, Act III: My sweet HoneySuckle, my Joy and Delight! (6:25)
18. The Dragon of Wantley, Act III: Most Mighty Moore, What Wonders Hast Thou Done? (0:42)
19. The Dragon of Wantley, Act III: Sing, Sing and Rorio an Oratorio (2:33)

foobar2000 1.6.10 / Dynamic Range Meter 1.1.1
log date: 2022-06-30 20:34:49

––––––––––––––––––––––––––––––––––––––––
Analyzed: Catherine Carby / Lampe: The Dragon of Wantley (1-8)
John Savournin / Lampe: The Dragon of Wantley (9-14)
Mark Wilde / Lampe: The Dragon of Wantley (15-19)
Mary Bevan / Lampe: The Dragon of Wantley (20-41)
The Brook Street Band / Lampe: The Dragon of Wantley (42-46)
––––––––––––––––––––––––––––––––––––––––

DR Peak RMS Duration Track
––––––––––––––––––––––––––––––––––––––––
DR14 -7.61 dB -27.91 dB 2:04 11-The Dragon of Wantley, Act I: He’s a Man Ev’ry Inch, I Assure You
DR11 -10.76 dB -29.49 dB 0:23 20-The Dragon of Wantley, Act I: A Forward Lady!
DR14 -4.33 dB -26.81 dB 1:29 22-The Dragon of Wantley, Act I: O Villain! Monster! Devil! Basely Base!
DR15 -7.46 dB -27.08 dB 2:13 23-The Dragon of Wantley, Act I: No Place shall conceal ‘em
DR16 -7.65 dB -29.97 dB 0:55 24-The Dragon of Wantley, Act I: By Jove! I'm Blown
DR12 -13.44 dB -32.80 dB 0:22 26-The Dragon of Wantley, Act I: But do you really love me?
DR14 -6.10 dB -25.66 dB 4:13 27-The Dragon of Wantley, Act I: Pigs Shall Not Be So Fond as We
DR15 -6.77 dB -29.65 dB 5:02 32-The Dragon of Wantley, Act II: O Give Me Not Up To The Law
DR13 -8.71 dB -26.57 dB 0:24 05-The Dragon of Wantley, Act I: What Wretched Havock Does This Dragon Make!
DR16 -4.98 dB -28.08 dB 2:14 06-The Dragon of Wantley, Act I: Poor Children Three, Devoured He
DR12 -7.03 dB -29.66 dB 0:56 39-The Dragon of Wantley, Act III: Symphony – What Nasty Dog has Got Into the Well
DR13 -8.41 dB -27.62 dB 1:45 40-The Dragon of Wantley, Act III: Oh ho! Master Moore, You Son of a Whore
DR14 -11.67 dB -34.07 dB 1:02 42-The Dragon of Wantley, Act III: Oh! Oh! The Devil Take Your Toe!
DR12 -11.85 dB -29.31 dB 0:42 45-The Dragon of Wantley, Act III: Most Mighty Moore, What Wonders Hast Thou Done?
DR14 -10.15 dB -28.90 dB 0:26 14-The Dragon of Wantley, Act I: Come, Friends, Let’s Circulate the Cheerful Glass
DR15 -8.27 dB -27.14 dB 4:46 15-The Dragon of Wantley, Act I: Zeno, Plato, Aristotle
DR14 -10.36 dB -29.05 dB 2:12 25-The Dragon of Wantley, Act I: By the Beer as Brown as Berry
DR14 -5.04 dB -27.53 dB 0:57 35-The Dragon of Wantley, Act II: Now, Now or Never, Save us, Valiant Moore!
DR16 -7.87 dB -28.37 dB 4:39 38-The Dragon of Wantley, Act III: Dragon! Thus I Dare Thee – It is Not Strength That Always Wins
DR15 -1.28 dB -20.47 dB 1:09 03-The Dragon of Wantley, Act I: Fly, Neighbours, Fly, The Dragon’s Nigh
DR14 -2.07 dB -21.16 dB 2:41 07-The Dragon of Wantley, Act I: Houses and Churches, To Him are Geese and Turkies
DR12 -6.46 dB -26.32 dB 0:46 08-The Dragon of Wantley, Act I: O Father!
DR15 -5.00 dB -27.21 dB 4:25 09-The Dragon of Wantley, Act I: But to Hear the Children Mutter
DR14 -6.34 dB -26.13 dB 0:55 10-The Dragon of Wantley, Act I: This Dragon Very Modish
DR14 -0.92 dB -21.95 dB 1:23 12-The Dragon of Wantley, Act I: Let’s Go to His Dwelling
DR14 -3.97 dB -23.95 dB 2:18 16-The Dragon of Wantley, Act I: O Save Us All! Moore of Moore Hall!
DR16 -2.81 dB -27.28 dB 5:46 17-The Dragon of Wantley, Act I: Gentle Knight! All Knights Exceeding
DR14 -8.16 dB -29.22 dB 1:10 18-The Dragon of Wantley, Act I: Her Looks Shoot Thro’ My Soul
DR15 -3.69 dB -25.62 dB 3:53 19-The Dragon of Wantley, Act I: If That’s All You Ask
DR16 -5.02 dB -26.92 dB 5:30 21-The Dragon of Wantley, Act I: Let My Dearest Be Near Me
DR18 -2.37 dB -28.83 dB 5:58 28-The Dragon of Wantley, Act II: Sure My Stays Will Burst With Sobbing
DR15 -5.43 dB -27.84 dB 2:06 29-The Dragon of Wantley, Act II: My Madge! My HoneySuckle, in the Dumps!
DR15 -0.37 dB -22.74 dB 5:48 30-The Dragon of Wantley, Act II: Insulting Gipsey, You’re Surely Tipsy
DR14 -7.92 dB -28.50 dB 1:00 31-The Dragon of Wantley, Act II: Lauk! What a Monstrous Tail our Cat Has Got
DR14 -12.68 dB -32.89 dB 0:15 33-The Dragon of Wantley, Act II: Come, come, forgive her!
DR16 -3.48 dB -26.28 dB 4:45 34-The Dragon of Wantley, Act II: Oh How Easy is a Woman
DR13 -3.13 dB -21.63 dB 1:49 36-The Dragon of Wantley, Act II: Fill the Mighty Flagon
DR15 -10.65 dB -30.04 dB 0:31 37-The Dragon of Wantley, Act III: One Buss, Dear Margery, and Then Away
DR14 -8.32 dB -28.63 dB 0:34 43-The Dragon of Wantley, Act III: Oh, My Champion! How d'ye Do?
DR16 -5.76 dB -27.29 dB 6:25 44-The Dragon of Wantley, Act III: My sweet HoneySuckle, my Joy and Delight!
DR13 -1.44 dB -18.84 dB 2:33 46-The Dragon of Wantley, Act III: Sing, Sing and Rorio an Oratorio
DR13 -5.33 dB -24.91 dB 3:35 01-The Dragon of Wantley, Act I: Overture
DR13 -6.90 dB -24.38 dB 2:39 02-The Dragon of Wantley, Act I: First & Second Tune
DR13 -13.06 dB -30.13 dB 0:37 04-The Dragon of Wantley, Act I: The Dragon’s March Crossing the Stage
DR11 -14.45 dB -30.17 dB 1:14 13-The Dragon of Wantley, Act I: Symphony
DR12 -1.73 dB -20.23 dB 1:22 41-The Dragon of Wantley, Act III: Battle Piece
––––––––––––––––––––––––––––––––––––––––

Number of tracks: 46
Official DR value: DR14

Samplerate: 96000 Hz
Channels: 2
Bits per sample: 24
Bitrate: 2759 kbps
Codec: FLAC
================================================================================