Tags
Language
Tags

Tredegar Town Band - Vaughan Williams on Brass (2022) [Official Digital Download 24/96]

Posted By: pyatak
Tredegar Town Band - Vaughan Williams on Brass (2022) [Official Digital Download 24/96]

Tredegar Town Band - Vaughan Williams on Brass (2022) [Official Digital Download 24/96]
FLAC (tracks) 24-bit/96 kHz | Front Cover | Time - 79:21 minutes | 1,24 GB
Classical | Studio Master, Official Digital Download

This album includes Ralph Vaughan Williams’s three pieces for brass band – Henry the Fifth Overture, Prelude on Three Welsh Hymns and Variations for Brass Band. In addition we hear the brass band version of the Tuba Concerto and many new arrangements of popular pieces by Paul Hindmarsh (who curated and produced the album) and Phillip Littlemore. The origins of Tredegar Town Band date back to 1849, and the band was formally constituted in 1876. Over the last 40 years they have become one of the world’s elite brass band performers, claiming the British Open title in 2010 and again in 2013.

TRACKLIST

1. Tredegar Town Band - Flourish for Band (Arr. P. Littlemore for Brass Band)
2. Tredegar Town Band - I. March. Seventeen Come Sunday
3. Tredegar Town Band - II. Intermezzo. My Bonny Boy
4. Tredegar Town Band - III. March. Folk Songs from Somerset
5. Tredegar Town Band - Sea Songs (Arr. P. Littlemore for Brass Band)
6. Tredegar Town Band - Henry the Fifth
7. Tredegar Town Band - The Truth from Above (Arr. P. Hindmarsh for Brass Band)
8. Tredegar Town Band - Prelude on Rhosymedre (Arr. P. Hindmarsh for Brass Band)
9. Tredegar Town Band - Suite (From "49th Parallel") [Arr. P. Littlemore & P. Hindmarsh for Brass Band]
10. Tredegar Town Band - Prelude on Three Welsh Hymn Tunes
11. Tredegar Town Band - I. Prelude. Allegro moderato
12. Tredegar Town Band - II. Romanza. Andante sostenuto
13. Tredegar Town Band - III. Finale - Rondo alla Tedesca. Allegro
14. Tredegar Town Band - Variations for Brass Band

foobar2000 1.6.2 / Dynamic Range Meter 1.1.1
log date: 2022-08-06 16:35:00

––––––––––––––––––––––––––––––––––––––––
Analyzed: Tredegar Town Band / Vaughan Williams on Brass
––––––––––––––––––––––––––––––––––––––––

DR Peak RMS Duration Track
––––––––––––––––––––––––––––––––––––––––
DR11 -1.07 dB -17.28 dB 1:56 01-Flourish for Band (Arr. P. Littlemore for Brass Band)
DR13 -0.63 dB -19.72 dB 3:24 02-I. March. Seventeen Come Sunday
DR13 -8.16 dB -27.47 dB 3:05 03-II. Intermezzo. My Bonny Boy
DR13 -0.43 dB -19.09 dB 3:47 04-III. March. Folk Songs from Somerset
DR17 -0.87 dB -22.40 dB 4:06 05-Sea Songs (Arr. P. Littlemore for Brass Band)
DR13 -0.63 dB -18.97 dB 8:38 06-Henry the Fifth
DR12 -2.50 dB -22.73 dB 4:33 07-The Truth from Above (Arr. P. Hindmarsh for Brass Band)
DR12 -4.80 dB -24.11 dB 3:51 08-Prelude on Rhosymedre (Arr. P. Hindmarsh for Brass Band)
DR15 -0.35 dB -21.10 dB 14:05 09-Suite (From "49th Parallel") [Arr. P. Littlemore & P. Hindmarsh for Brass Band]
DR13 -0.23 dB -18.42 dB 7:11 10-Prelude on Three Welsh Hymn Tunes
DR14 -0.44 dB -22.03 dB 4:30 11-I. Prelude. Allegro moderato
DR14 -2.53 dB -22.60 dB 5:17 12-II. Romanza. Andante sostenuto
DR14 -0.45 dB -20.13 dB 3:18 13-III. Finale - Rondo alla Tedesca. Allegro
DR14 -1.24 dB -21.54 dB 11:49 14-Variations for Brass Band
––––––––––––––––––––––––––––––––––––––––

Number of tracks: 14
Official DR value: DR14

Samplerate: 96000 Hz
Channels: 2
Bits per sample: 24
Bitrate: 2180 kbps
Codec: FLAC
================================================================================



Thanks to the Original customer.