Tags
Language
Tags
May 2024
Su Mo Tu We Th Fr Sa
28 29 30 1 2 3 4
5 6 7 8 9 10 11
12 13 14 15 16 17 18
19 20 21 22 23 24 25
26 27 28 29 30 31 1

The Rolling Stones - Metamorphosis (1975/2014) [Official Digital Download 24/176]

Posted By: pyatak
The Rolling Stones - Metamorphosis (1975/2014) [Official Digital Download 24/176]

The Rolling Stones - Metamorphosis (1975/2014) [Official Digital Download 24/176]
FLAC (tracks) 24-bit/176.4 kHz | Front Cover | Time - 48:03 minutes | 1,56 GB
Rock, Blues Rock | Studio Master, Official Digital Download

The first official Rolling Stones’ rarities collection, Metamorphosis, was originally released in June 1975 to try to outwit the bootleggers. The release combines legendary outtakes and rarities as well as the wealth of demos that Mick Jagger and Keith Richards composed for other artists, which were subsequently re-recorded by the Stones themselves. The collection includes an orchestrated version of “Out Of Time,” recently featured in Quentin Tarantino’s Once Upon a Time in Hollywood.

TRACKLIST

01. The Rolling Stones - Out Of Time (Strings Version)
02. The Rolling Stones - Don't Lie To Me
03. The Rolling Stones - Somethings Just Stick In Your Mind
04. The Rolling Stones - Each And Every Day Of The Year
05. The Rolling Stones - Heart Of Stone
06. The Rolling Stones - I'd Much Rather Be With The Boys
07. The Rolling Stones - (Walkin' Thru The) Sleepy City
08. The Rolling Stones - We're Wastin' Time
09. The Rolling Stones - Try A Little Harder
10. The Rolling Stones - I Don't Know Why (Aka Don't Know Why I Love You)
11. The Rolling Stones - If You Let Me
12. The Rolling Stones - Jiving Sister Fanny
13. The Rolling Stones - Downtown Suzie
14. The Rolling Stones - Family
15. The Rolling Stones - Memo From Turner
16. The Rolling Stones - I'm Going Down

foobar2000 1.6.2 / Dynamic Range Meter 1.1.1
log date: 2021-02-13 22:44:34

––––––––––––––––––––––––––––––––––––––––
Analyzed: The Rolling Stones / Metamorphosis
––––––––––––––––––––––––––––––––––––––––

DR Peak RMS Duration Track
––––––––––––––––––––––––––––––––––––––––
DR11 -0.35 dB -13.33 dB 3:23 01-Out Of Time (Strings Version)
DR9 -2.49 dB -12.85 dB 2:02 02-Don't Lie To Me
DR9 -2.73 dB -13.69 dB 2:27 03-Somethings Just Stick In Your Mind
DR9 -2.25 dB -14.67 dB 2:49 04-Each And Every Day Of The Year
DR9 -3.32 dB -14.34 dB 3:48 05-Heart Of Stone
DR9 -2.24 dB -12.55 dB 2:13 06-I'd Much Rather Be With The Boys
DR10 -2.74 dB -13.62 dB 2:52 07-(Walkin' Thru The) Sleepy City
DR9 -2.81 dB -13.34 dB 2:44 08-We're Wastin' Time
DR10 -3.51 dB -14.73 dB 2:20 09-Try A Little Harder
DR9 -1.86 dB -13.89 dB 3:03 10-I Don't Know Why (Aka Don't Know Why I Love You)
DR10 -1.98 dB -14.98 dB 3:19 11-If You Let Me
DR10 -0.45 dB -12.45 dB 3:25 12-Jiving Sister Fanny
DR10 -0.75 dB -14.40 dB 3:53 13-Downtown Suzie
DR10 -0.59 dB -13.04 dB 4:07 14-Family
DR10 0.00 dB -11.73 dB 2:47 15-Memo From Turner
DR9 -0.03 dB -10.75 dB 2:52 16-I'm Going Down
––––––––––––––––––––––––––––––––––––––––

Number of tracks: 16
Official DR value: DR10

Samplerate: 176400 Hz
Channels: 2
Bits per sample: 24
Bitrate: 4959 kbps
Codec: FLAC
================================================================================



Thanks to the Original customer.