Tags
Language
Tags

Eugene Tzigane - Radu Paladi: Concertos & Symphonic Suite "The Little Magic Flute" (2022) [Official Digital Download 24/96]

Posted By: SERTiL
Eugene Tzigane - Radu Paladi: Concertos & Symphonic Suite "The Little Magic Flute" (2022) [Official Digital Download 24/96]

Nina Karmon, Oliver Triendl, Wurttembergische Philharmonie Reutlingen, Eugene Tzigane - Radu Paladi: Concertos & Symphonic Suite "The Little Magic Flute" (2022)
FLAC (tracks) 24-bit/96 kHz | Time - 56:53 minutes | 1.00 GB
Studio Master, Official Digital Download | Artwork: Digital booklet

After being forced out of his Soviet-occupied home in Bukovina (Chernivtsi), Radu Paladi (1927-2013) proved an exceptional talent, whether as a composer, pianist, conductor or lecturer. In the 1950s, a time that was particularly tricky both politically and artistically, Radu Paladi managed to find his artistic path and distinctive voice, incorporating and elevating Romanian folklore in his highly elaborate compositional style to fascinating effect. His music, combining depth, brilliance and vitality, spoke to listeners with an immediacy that made hearing his music an exhilarating experience.

Tracklist:
1. Piano Concerto in C Major: I. Giocoso. Allegro con spirito (5:43)
2. Piano Concerto in C Major: II. Lamento. Andante sostenuto (9:13)
3. Piano Concerto in C Major: III. Toccata. Vivo (6:25)
4. Symphonic Suite "The Little Magic Flute": I. Moderato (1:12)
5. Symphonic Suite "The Little Magic Flute": II. Vivace giocoso (0:26)
6. Symphonic Suite "The Little Magic Flute": III. Rubato (3:33)
7. Symphonic Suite "The Little Magic Flute": IV. Molto vivace (0:51)
8. Symphonic Suite "The Little Magic Flute": V. Andantino (1:03)
9. Symphonic Suite "The Little Magic Flute": VI. Andante (1:56)
10. Symphonic Suite "The Little Magic Flute": VII. Vivace (1:43)
11. Symphonic Suite "The Little Magic Flute": VIII. Allegretto (1:51)
12. Symphonic Suite "The Little Magic Flute": IX. Allegretto (2:14)
13. Violin Concerto in E Minor: I. Largo - Allegro (6:57)
14. Violin Concerto in E Minor: II. Andante (7:17)
15. Violin Concerto in E Minor: III. Vivo (6:36)

foobar2000 1.6 / Dynamic Range Meter 1.1.1
log date: 2022-08-06 16:31:49

––––––––––––––––––––––––––––––––––––––––
Analyzed: Nina Karmon / Radu Paladi: Concertos & Symphonic Suite "The Little Magic Flute" (1-3)
Oliver Triendl / Radu Paladi: Concertos & Symphonic Suite "The Little Magic Flute" (4-6)
Württembergische Philharmonie Reutlingen / Radu Paladi: Concertos & Symphonic Suite "The Little Magic Flute" (7-15)
––––––––––––––––––––––––––––––––––––––––

DR Peak RMS Duration Track
––––––––––––––––––––––––––––––––––––––––
DR16 -0.10 dB -23.17 dB 6:57 13-I. Largo - Allegro
DR17 -0.10 dB -23.22 dB 7:17 14-II. Andante
DR18 -0.10 dB -23.18 dB 6:36 15-III. Vivo
DR16 -0.71 dB -21.39 dB 5:43 01-I. Giocoso. Allegro con spirito
DR13 -3.41 dB -24.97 dB 9:13 02-II. Lamento. Andante sostenuto
DR14 -0.10 dB -19.06 dB 6:25 03-III. Toccata. Vivo
DR11 -2.98 dB -21.90 dB 1:12 04-I. Moderato
DR12 -13.41 dB -33.05 dB 0:26 05-II. Vivace giocoso
DR13 -12.87 dB -29.69 dB 3:33 06-III. Rubato
DR10 -1.61 dB -22.85 dB 0:51 07-IV. Molto vivace
DR13 -5.95 dB -28.11 dB 1:03 08-V. Andantino
DR13 -0.10 dB -18.80 dB 1:56 09-VI. Andante
DR12 -4.61 dB -23.36 dB 1:43 10-VII. Vivace
DR14 -8.29 dB -29.08 dB 1:51 11-VIII. Allegretto
DR14 -0.10 dB -20.29 dB 2:14 12-IX. Allegretto
––––––––––––––––––––––––––––––––––––––––

Number of tracks: 15
Official DR value: DR14

Samplerate: 96000 Hz
Channels: 2
Bits per sample: 24
Bitrate: 2541 kbps
Codec: FLAC
================================================================================


Thanks to the Original customer.