Tags
Language
Tags

Talia Or, Bettina Aust, Christine Steinbrecher - Paul Ben-Haim: Music for Strings (2022) [Official Digital Download]

Posted By: ciklon5
Talia Or, Bettina Aust, Christine Steinbrecher - Paul Ben-Haim: Music for Strings (2022) [Official Digital Download]

Talia Or, Bettina Aust, Christine Steinbrecher - Paul Ben-Haim: Music for Strings (2022) [Official Digital Download]
FLAC (tracks), Lossless [24bit-96kHz] +Booklet | 1:00:36 | 1,13 Gb
Genre: Classical / Label: CAvi-music

Alle Werke auf diesem Album stammen aus der Zeit zwischen 1945 und 1956. Es war ein gutes Jahrzehnt für Paul Ben-Haim, aber es repräsentiert nur einen Bruchteil der künstlerischen Laufbahn eines Komponisten, der der Nachwelt über 250 Werke hinterlassen hat.Dennoch waren diese Jahre für ihn von besonderer Bedeutung. Das Ende des Zweiten Weltkriegs 1945 und die Gründung des Staates Israel 1948 gehörten zu einer Zeit der Hoffnung, des Aufbruchs und der Erneuerung, während der Schatten der vorangegangenen katastrophalen Ereignisse in Europa und die schmerzhaften Erinnerungen an Verfolgung, Vertreibung und Exil noch nachwirkten.

Track List:
01. Concerto for Strings, Op. 40: I. Preambolo
02. Concerto for Strings, Op. 40: II. Capriccio
03. Concerto for Strings, Op. 40: III. Intermezzo Lirico
04. Concerto for Strings, Op. 40: IV. Finale
05. Pastorale Variée, for Clarinet, Harp and String Orchestra, Op. 31B: Theme
06. Pastorale Variée, for Clarinet, Harp and String Orchestra, Op. 31B: Var. I
07. Pastorale Variée, for Clarinet, Harp and String Orchestra, Op. 31B: Var. II
08. Pastorale Variée, for Clarinet, Harp and String Orchestra, Op. 31B: Var. III
09. Pastorale Variée, for Clarinet, Harp and String Orchestra, Op. 31B: Var. IV
10. Pastorale Variée, for Clarinet, Harp and String Orchestra, Op. 31B: Var. V
11. Pastorale Variée, for Clarinet, Harp and String Orchestra, Op. 31B: Var. VI (Epilogue)
12. Three Songs without Words, for Voice or Instrument and 12 Strings: No. 1, Arioso
13. Three Songs without Words, for Voice or Instrument and 12 Strings: No. 2, Ballad
14. Three Songs without Words, for Voice or Instrument and 12 Strings: No. 3, Sephardic Melody
15. Music for Strings: I. Melody
16. Music for Strings: II. Canon
17. Music for Strings: III. Serenade
18. Music for Strings: IV. Aria
19. Music for Strings: V. Finale

foobar2000 1.6.10 / Dynamic Range Meter 1.1.1
log date: 2022-06-29 06:42:31

––––––––––––––––––––––––––––––––––––––––
Analyzed: Talia Or, Bettina Aust, Christine Steinbrecher, Bayerische Kammerphilharmonie & Gabriel Adorján / Paul Ben-Haim: Music for Strings
––––––––––––––––––––––––––––––––––––––––

DR Peak RMS Duration Track
––––––––––––––––––––––––––––––––––––––––
DR13 -0.98 dB -18.22 dB 4:03 01-Concerto for Strings, Op. 40: I. Preambolo
DR14 -3.03 dB -22.97 dB 5:20 02-Concerto for Strings, Op. 40: II. Capriccio
DR13 -8.70 dB -28.94 dB 4:21 03-Concerto for Strings, Op. 40: III. Intermezzo Lirico
DR15 -1.22 dB -21.11 dB 5:59 04-Concerto for Strings, Op. 40: IV. Finale
DR11 -7.61 dB -25.51 dB 1:38 05-Pastorale Variée, for Clarinet, Harp and String Orchestra, Op. 31B: Theme
DR12 -3.67 dB -21.80 dB 1:40 06-Pastorale Variée, for Clarinet, Harp and String Orchestra, Op. 31B: Var. I
DR11 -5.50 dB -22.95 dB 1:41 07-Pastorale Variée, for Clarinet, Harp and String Orchestra, Op. 31B: Var. II
DR11 -12.19 dB -28.99 dB 1:54 08-Pastorale Variée, for Clarinet, Harp and String Orchestra, Op. 31B: Var. III
DR12 -7.28 dB -25.52 dB 2:21 09-Pastorale Variée, for Clarinet, Harp and String Orchestra, Op. 31B: Var. IV
DR12 -3.06 dB -18.47 dB 1:49 10-Pastorale Variée, for Clarinet, Harp and String Orchestra, Op. 31B: Var. V
DR13 -5.27 dB -24.06 dB 4:57 11-Pastorale Variée, for Clarinet, Harp and String Orchestra, Op. 31B: Var. VI (Epilogue)
DR16 -1.38 dB -24.57 dB 3:27 12-Three Songs without Words, for Voice or Instrument and 12 Strings: No. 1, Arioso
DR14 -3.69 dB -25.38 dB 2:45 13-Three Songs without Words, for Voice or Instrument and 12 Strings: No. 2, Ballad
DR13 -3.08 dB -21.44 dB 3:40 14-Three Songs without Words, for Voice or Instrument and 12 Strings: No. 3, Sephardic Melody
DR13 -2.69 dB -22.42 dB 2:59 15-Music for Strings: I. Melody
DR13 -1.75 dB -18.87 dB 2:16 16-Music for Strings: II. Canon
DR15 -4.88 dB -25.94 dB 2:41 17-Music for Strings: III. Serenade
DR14 -7.35 dB -26.99 dB 3:10 18-Music for Strings: IV. Aria
DR16 -0.97 dB -21.13 dB 3:55 19-Music for Strings: V. Finale
––––––––––––––––––––––––––––––––––––––––

Number of tracks: 19
Official DR value: DR13

Samplerate: 96000 Hz
Channels: 2
Bits per sample: 24
Bitrate: 2746 kbps
Codec: FLAC
================================================================================