Tags
Language
Tags

Steven Ricks - Assemblage Chamber (2022) [Official Digital Download 24/96]

Posted By: pyatak
Steven Ricks - Assemblage Chamber (2022) [Official Digital Download 24/96]

Steven Ricks - Assemblage Chamber (2022) [Official Digital Download 24/96]
FLAC (tracks) 24-bit/96 kHz | Front Cover | Time - 45:53 minutes | 828 MB
Classical | Studio Master, Official Digital Download

Composer Steven Ricks' Assemblage Chamber features three chamber works that incorporate elements of the Baroque into Ricks' glitchy, collage oriented textures. An eclectic artist who is active in electronic music and free improvisation in addition to through-composed acoustic work, Ricks filters Baroque influences through his omnivorous style, responding at the end of the recording with an electronic reaction piece, a reckoning with incorporating older material from the vantage point of 2022. Assemblage Chamber features performances by counter)induction, the NOVA Chamber Players, Aubrey Woods, Alex Woods, and Jason Hardink.

Deconstruction and fragmentation are core components of composer Steven Ricks’ work. On a previous New Focus Recordings release from 2015, Young American Inventions (FCR158), Ricks processed the detritus of the American aural landscape through his own modernist lens, designing glitchy electronic and ensemble textures, peppering them with quotes from disparate sources like Steely Dan, Steve Reich, and Milton Babbitt, and mixing them with shards of drum samples and automated call center style voices. On Assemblage Chamber, Ricks turns to the past, mining the juxtapositions, improvisatory spirit, and rich rhetorical framework of the Baroque. Ricks’ deconstructive impulse flowers and perhaps inverts itself in this context, extrapolating possibilities instead of picking them apart. With wit and a deft compositional hand, Ricks creates three ensemble works, two featuring the harpsichord, that use Baroque conventions as a springboard to reveal a prismatic version of its characteristic tropes. The album closes with the electronic title track, a piece that functions as a kind of reconciliation between Ricks’ journey into the musical past and an artistic voice more familiar to those who know his work.

TRACKLIST

1. Aubrey Woods, Alex Woods & Jason Hardink - Heavy with Sonata: I. Plotting Our Next (Dance) Move
2. Aubrey Woods, Alex Woods & Jason Hardink - Heavy with Sonata: Ii. Sarah’s Gigabit Broadband
3. Aubrey Woods, Alex Woods & Jason Hardink - Heavy with Sonata: Iii. I’ll Amend the Current Trend
4. counter)induction - Reconstructing the Lost Improvisations of Aldo Pilestri (1683–1727)
5. Nova Chamber Music Players - Piece for Mixed Quartet: I. Dance of Spheres
6. Nova Chamber Music Players - Piece for Mixed Quartet: Ii. Baroque Assemblage
7. Steven Ricks - Assemblage Chamber

foobar2000 1.6.2 / Dynamic Range Meter 1.1.1
log date: 2022-05-24 20:04:19

––––––––––––––––––––––––––––––––––––––––
Analyzed: Aubrey Woods, Alex Woods & Jason Hardink / Steven Ricks Assemblage Chamber (1-3)
counter)induction / Steven Ricks Assemblage Chamber (4)
Nova Chamber Music Players / Steven Ricks Assemblage Chamber (5-6)
Steven Ricks / Steven Ricks Assemblage Chamber (7)
––––––––––––––––––––––––––––––––––––––––

DR Peak RMS Duration Track
––––––––––––––––––––––––––––––––––––––––
DR13 -4.02 dB -20.98 dB 1:44 01-Heavy with Sonata: I. Plotting Our Next (Dance) Move
DR12 -1.12 dB -18.32 dB 4:09 02-Heavy with Sonata: Ii. Sarah’s Gigabit Broadband
DR15 -1.19 dB -20.82 dB 5:30 03-Heavy with Sonata: Iii. I’ll Amend the Current Trend
DR14 -1.97 dB -20.48 dB 14:18 04-Reconstructing the Lost Improvisations of Aldo Pilestri (1683–1727)
DR13 -0.10 dB -18.22 dB 3:56 05-Piece for Mixed Quartet: I. Dance of Spheres
DR13 -0.10 dB -17.89 dB 3:54 06-Piece for Mixed Quartet: Ii. Baroque Assemblage
DR14 -1.18 dB -19.44 dB 12:22 07-Assemblage Chamber
––––––––––––––––––––––––––––––––––––––––

Number of tracks: 7
Official DR value: DR13

Samplerate: 96000 Hz
Channels: 2
Bits per sample: 24
Bitrate: 2520 kbps
Codec: FLAC
================================================================================



Thanks to the Original customer.