Queen - On Air (2016) [TR24][OF]

Posted By: SERTiL
Queen - On Air (2016) [TR24][OF]

Queen - On Air
Classic Rock | FLAC (tracks) 24-bit/96 kHz | 101:04 min | 1.21 GB | Front Cover
Label: Hollywood Records | Tracks: 24 | Rls.date: 2016

Virgin/EMI (Hollywood Records in the US) will issue Queen On Air in November, an archival release that brings together six Queen radio sessions recorded for the BBC between February 1973 and October 1977.

These sessions produced some interesting material, including alternate versions of the debut single and unique takes of classic album tracks.

The audio has been restored by Queen engineer Kris Fredriksson and mastered by Adam Ayan and the sessions will be available as a two-CD set, a 3LP vinyl edition and a deluxe 6CD box that adds a CD of live broadcasts to the sessions and three CDs of radio interviews.

The ‘Live On Air’ CD features 24-tracks recorded at Golders Green Hippodrome, London, 1973, Estádio Do Morumbi, São Paulo, Brazil, in 1981 and Maimmarktgelände, Mannheim, Germany, in 1986.

The interviews last for three and a half hours and were recorded for the BBC and Capital Radio in London between 1976-1992. Interviewers include Kenny Everett, Simon Bates, Richard Skinner and Tommy Vance. Included is the very last interview (with Mike Read) that Brian, John, Freddie and Roger would give together. This was in 1989 to promote The Miracle. Also, in an August 1992 BBC Radio 2 interview Brian recalls the loss of Freddie Mercury nine months earlier and coming to terms with his death.

TRACKLIST

CD1
1 My Fairy King (BBC Session / February 5th 1973, Langham 1 Studio) 00:04:08
2 Keep Yourself Alive (BBC Session / February 5th 1973, Langham 1 Studio) 00:03:50
3 Doing All Right (BBC Session / February 5th 1973, Langham 1 Studio) 00:04:13
4 Liar (BBC Session / February 5th 1973, Langham 1 Studio) 00:06:30
5 See What A Fool I've Been (BBC Session / July 25th 1973, Langham 1 Studio) 00:04:21
6 Keep Yourself Alive (BBC Session / July 25th 1973, Langham 1 Studio) 00:03:51
7 Liar (BBC Session / July 25th 1973, Langham 1 Studio) 00:06:30
8 Son And Daughter (BBC Session / July 25th 1973, Langham 1 Studio) 00:06:04
9 Ogre Battle (BBC Session / December 3rd 1973, Langham 1 Studio) 00:04:41
10 Modern Times Rock 'n' Roll (BBC Session / December 3rd 1973, Langham 1 Studio) 00:02:03
11 Great King Rat (BBC Session / December 3rd 1973, Langham 1 Studio) 00:05:57
12 Son And Daughter (BBC Session / December 3rd 1973, Langham 1 Studio) 00:07:09

CD2
1 Modern Times Rock 'n' Roll (BBC Session / April 3rd 1974, Langham 1 Studio) 00:02:47
2 Nevermore (BBC Session / April 3rd 1974, Langham 1 Studio) 00:01:29
3 White Queen (As It Began) (BBC Session / April 3rd 1974, Langham 1 Studio) 00:04:54
4 Now I'm Here (BBC Session / October 16th 1974, Maida Vale 4 Studio) 00:04:19
5 Stone Cold Crazy (BBC Session / October 16th 1974, Maida Vale 4 Studio) 00:02:17
6 Flick Of The Wrist (BBC Session / October 16th 1974, Maida Vale 4 Studio) 00:03:27
7 Tenement Funster (BBC Session / October 16th 1974, Maida Vale 4 Studio) 00:03:00
8 We Will Rock You (BBC Session / October 28th 1977, Maida Vale 4 Studio) 00:01:35
9 We Will Rock You (Fast) (BBC Session / October 28th 1977, Maida Vale 4 Studio) 00:02:47
10 Spread Your Wings (BBC Session / October 28th 1977, Maida Vale 4 Studio) 00:05:24
11 It's Late (BBC Session / October 28th 1977, Maida Vale 4 Studio) 00:06:37
12 My Melancholy Blues (BBC Session / October 28th 1977, Maida Vale 4 Studio) 00:03:11

foobar2000 1.3.14 / Dynamic Range Meter 1.1.1
log date: 2017-01-10 20:06:22

––––––––––––––––––––––––––––––––––––––––
Analyzed: Queen / On Air
––––––––––––––––––––––––––––––––––––––––

DR Peak RMS Duration Track
––––––––––––––––––––––––––––––––––––––––
DR9 0.00 dB -12.63 dB 4:08 01-My Fairy King (BBC Session / February 5th 1973, Langham 1 Studio)
DR9 0.00 dB -11.81 dB 3:50 02-Keep Yourself Alive (BBC Session / February 5th 1973, Langham 1 Studio)
DR9 -0.50 dB -14.26 dB 4:13 03-Doing All Right (BBC Session / February 5th 1973, Langham 1 Studio)
DR10 0.00 dB -13.20 dB 6:30 04-Liar (BBC Session / February 5th 1973, Langham 1 Studio)
DR10 0.00 dB -12.43 dB 4:21 05-See What A Fool I've Been (BBC Session / July 25th 1973, Langham 1 Studio)
DR9 -0.20 dB -11.90 dB 3:51 06-Keep Yourself Alive (BBC Session / July 25th 1973, Langham 1 Studio)
DR10 -0.22 dB -12.68 dB 6:30 07-Liar (BBC Session / July 25th 1973, Langham 1 Studio)
DR11 0.00 dB -12.31 dB 6:04 08-Son And Daughter (BBC Session / July 25th 1973, Langham 1 Studio)
DR9 0.00 dB -11.27 dB 4:41 09-Ogre Battle (BBC Session / December 3rd 1973, Langham 1 Studio)
DR9 0.00 dB -10.77 dB 2:03 10-Modern Times Rock 'n' Roll (BBC Session / December 3rd 1973, Langham 1 Studio)
DR9 0.00 dB -11.39 dB 5:57 11-Great King Rat (BBC Session / December 3rd 1973, Langham 1 Studio)
DR10 0.00 dB -11.58 dB 7:09 12-Son And Daughter (BBC Session / December 3rd 1973, Langham 1 Studio)
DR9 0.00 dB -9.99 dB 2:47 01-Modern Times Rock 'n' Roll (BBC Session / April 3rd 1974, Langham 1 Studio)
DR10 -0.26 dB -15.66 dB 1:29 02-Nevermore (BBC Session / April 3rd 1974, Langham 1 Studio)
DR9 -0.12 dB -12.22 dB 4:54 03-White Queen (As It Began) (BBC Session / April 3rd 1974, Langham 1 Studio)
DR8 0.00 dB -10.56 dB 4:19 04-Now I'm Here (BBC Session / October 16th 1974, Maida Vale 4 Studio)
DR8 0.00 dB -11.35 dB 2:17 05-Stone Cold Crazy (BBC Session / October 16th 1974, Maida Vale 4 Studio)
DR9 0.00 dB -11.39 dB 3:27 06-Flick Of The Wrist (BBC Session / October 16th 1974, Maida Vale 4 Studio)
DR10 0.00 dB -13.29 dB 3:00 07-Tenement Funster (BBC Session / October 16th 1974, Maida Vale 4 Studio)
DR9 0.00 dB -10.67 dB 1:35 08-We Will Rock You (BBC Session / October 28th 1977, Maida Vale 4 Studio)
DR8 0.00 dB -9.35 dB 2:47 09-We Will Rock You (Fast) (BBC Session / October 28th 1977, Maida Vale 4 Studio)
DR9 0.00 dB -10.83 dB 5:24 10-Spread Your Wings (BBC Session / October 28th 1977, Maida Vale 4 Studio)
DR9 0.00 dB -11.85 dB 6:37 11-It's Late (BBC Session / October 28th 1977, Maida Vale 4 Studio)
DR9 -0.04 dB -12.93 dB 3:11 12-My Melancholy Blues (BBC Session / October 28th 1977, Maida Vale 4 Studio)
––––––––––––––––––––––––––––––––––––––––

Number of tracks: 24
Official DR value: DR9

Samplerate: 96000 Hz
Channels: 2
Bits per sample: 24
Bitrate: 2955 kbps
Codec: FLAC
================================================================================


Thanks to the Original customer.