Tags
Language
Tags

Oulu Symphony Orchestra - Norman- Orchestral Works (2022) [Official Digital Download 24/96]

Posted By: pyatak
Oulu Symphony Orchestra - Norman- Orchestral Works (2022) [Official Digital Download 24/96]

Oulu Symphony Orchestra - Norman- Orchestral Works (2022) [Official Digital Download 24/96]
FLAC (tracks) 24-bit/96 kHz | Front Cover | Time - 56:42 minutes | 1,01 GB
Classical | Studio Master, Official Digital Download

This album includes a large portion of the orchestral works written by Ludvig Norman (1831–1885), ‘The Swedish Brahms’, including his masterpiece work, Symphony No. 3, performed by the Oulu Symphony Orchestra under Johannes Gustavsson. Ludvig Norman was a highly fascinating artist who inspired a generation of Swedish composers and was widely respected, although his 3rd Symphony was premièred only after the composer’s death.

TRACKLIST

1. Oulu Symphony Orchestra - Concert Overture in E-Flat Major, Op. 21
2. Oulu Symphony Orchestra - Funeral March in B Minor, Op. 46 "To the Memory of August Söderman"
3. Oulu Symphony Orchestra - Overture to Shakespeare's "Antony & Cleopatra", Op. 57
4. Oulu Symphony Orchestra - I. Allegro appassionato ma non troppo presto
5. Oulu Symphony Orchestra - II. Andante cantabile
6. Oulu Symphony Orchestra - III. Allegro molto comodo
7. Oulu Symphony Orchestra - IV. Allegro molto

foobar2000 1.6.2 / Dynamic Range Meter 1.1.1
log date: 2022-08-06 17:04:52

––––––––––––––––––––––––––––––––––––––––
Analyzed: Oulu Symphony Orchestra / Norman: Orchestral Works
––––––––––––––––––––––––––––––––––––––––

DR Peak RMS Duration Track
––––––––––––––––––––––––––––––––––––––––
DR13 -0.20 dB -17.81 dB 8:43 01-Concert Overture in E-Flat Major, Op. 21
DR14 -4.10 dB -23.96 dB 6:59 02-Funeral March in B Minor, Op. 46 "To the Memory of August Söderman"
DR13 -0.20 dB -18.53 dB 10:38 03-Overture to Shakespeare's "Antony & Cleopatra", Op. 57
DR13 -0.20 dB -17.60 dB 12:17 04-I. Allegro appassionato ma non troppo presto
DR13 -3.71 dB -22.16 dB 7:59 05-II. Andante cantabile
DR13 -2.93 dB -22.31 dB 4:30 06-III. Allegro molto comodo
DR13 -0.20 dB -17.84 dB 5:41 07-IV. Allegro molto
––––––––––––––––––––––––––––––––––––––––

Number of tracks: 7
Official DR value: DR13

Samplerate: 96000 Hz
Channels: 2
Bits per sample: 24
Bitrate: 2553 kbps
Codec: FLAC
================================================================================



Thanks to the Original customer.