Tags
Language
Tags

University of Texas Wind Ensemble, Jerry Junkin - Migration (2022) [Official Digital Download 24/176]

Posted By: SERTiL
University of Texas Wind Ensemble, Jerry Junkin - Migration (2022) [Official Digital Download 24/176]

University of Texas Wind Ensemble, Jerry Junkin - Migration (2022)
FLAC (tracks) 24-bit/176.4 kHz | Time - 78:48 minutes | 2.01 GB
Studio Master, Official Digital Download | Artwork: Digital Booklet

The University of Texas Wind Ensemble has firmly established itself as one of America’s elite wind bands. Active in the area of commissioning new music since 1988, the group has offered world premiere performances of works by many composers including John Corigliano, Michael Daugherty, Donald Grantham, David Maslanka, John Mackey and Dan Welcher. One of the guiding principles of the ensemble is contact with the leading musical minds of the twentieth and twenty-­first centuries.

Serving for more than 30 years on the faculty of The University of Texas at Austin, where he holds the Vincent R. and Jane D. DiNino Chair for the Director of Bands, Jerry Junkin is recognized as one of the world’s most highly regarded wind conductors. He has also served since 1993 as the Artistic Director and Conductor of the Dallas Winds, and as Music Director and Conductor of the Hong Kong Wind Philharmonia since 2003.

Four outstanding contemporary composers are represented on this album. The title piece "Migration" by Adam Schoenberg's Symphony No. 2 for Wind Ensemble, is the world premiere recording of this important new work. Reference Recordings is proud to present it beside two additional world premieres: The Eyes of the World Are Upon You by Jennifer Jolley, and Intrada 1631 (after Juan Pérez Bocanegra) by Stephen Montague. And last but certainly not least, this release contains the premiere of a new wind ensemble transcription of John Corigliano’s Concerto for Clarinet and Wind Ensemble, with clarinet soloist Jonathan Gunn.

The repertoire on this new album was performed by the UTWE on their CBDNA National Conference Tour in March of 2017, and recorded in sessions at Bates Recital Hall, The University of Texas at Austin, and at Meyerson Symphony Center, in Dallas Texas concluding in August of 2017.

Tracklist:
1. Symphony No. 2 for Wind Ensemble "Migration": I. March (4:06)
2. Symphony No. 2 for Wind Ensemble "Migration": II. Dreaming (6:07)
3. Symphony No. 2 for Wind Ensemble "Migration": III. Escape (2:59)
4. Symphony No. 2 for Wind Ensemble "Migration": IV. Crossing (5:49)
5. Symphony No. 2 for Wind Ensemble "Migration": V. Beginning (8:39)
6. Concerto for Clarinet & Wind Ensemble (Arr. C.B. Davis): I. Cadenzas (9:35)
7. Concerto for Clarinet & Wind Ensemble (Arr. C.B. Davis): II. Elegy (10:14)
8. Concerto for Clarinet & Wind Ensemble (Arr. C.B. Davis): III. Antiphonal Toccata (9:51)
9. The Eyes of the World Are Upon You (11:48)
10. Intrada 1631 (After J.P. Bocanegra) (9:47)

foobar2000 1.6 / Dynamic Range Meter 1.1.1
log date: 2022-08-06 16:32:13

––––––––––––––––––––––––––––––––––––––––
Analyzed: University of Texas Wind Ensemble / Migration
––––––––––––––––––––––––––––––––––––––––

DR Peak RMS Duration Track
––––––––––––––––––––––––––––––––––––––––
DR16 -0.54 dB -19.99 dB 4:06 01-I. March
DR13 -14.70 dB -33.87 dB 6:07 02-II. Dreaming
DR16 -1.79 dB -22.00 dB 2:59 03-III. Escape
DR11 -17.86 dB -34.08 dB 5:49 04-IV. Crossing
DR18 -2.22 dB -26.99 dB 8:39 05-V. Beginning
DR17 -3.16 dB -28.46 dB 9:35 06-I. Cadenzas
DR12 -23.38 dB -40.87 dB 10:14 07-II. Elegy
DR17 -0.86 dB -26.00 dB 9:51 08-III. Antiphonal Toccata
DR15 -1.41 dB -25.04 dB 11:48 09-The Eyes of the World Are Upon You
DR14 -0.90 dB -21.95 dB 9:47 10-Intrada 1631 (After J.P. Bocanegra)
––––––––––––––––––––––––––––––––––––––––

Number of tracks: 10
Official DR value: DR15

Samplerate: 176400 Hz
Channels: 2
Bits per sample: 24
Bitrate: 3681 kbps
Codec: FLAC
================================================================================


Thanks to the Original customer.