Tags
Language
Tags

Maurizio Baglini - Nature & Life (2022) [Official Digital Download]

Posted By: ciklon5
Maurizio Baglini - Nature & Life (2022) [Official Digital Download]

Maurizio Baglini - Nature & Life (2022) [Official Digital Download]
FLAC (tracks), Lossless [24bit-96kHz] | 1:12:48 | 1,07 Gb
Genre: Classical / Label: Universal Music Italia srL.

A distanza di tredici anni dalla registrazione della Sinfonia n. 9, album di debutto su Decca per Maurizio Baglini, il pianista toscano ritorna ad affrontare Beethoven trascritto da Liszt con una nuova proposta: la Sinfonia n. 6 op. 68 “Pastorale”. Un progetto che presenta all'ascoltatore alcuni legami indissolubili: la figura centrale di Beethoven nella storia universale, l'inclusione di culture esotiche – quella turca, nello specifico – nell'evoluzione sociologica europea, l'intervento fondamentale di Franz Liszt nella valorizzazione della musica di Beethoven nel secondo Ottocento. Beethoven ebbe un rapporto fortissimo con la società, con la politica e con la natura, percepita come trasfigurazione dell'esistenza terrena e ultraterrena: un rapporto spirituale, oltre che concreto e quotidianamente alimentato da un desiderio di frequentazione dell'ambiente a lui circostante. Questo sentimento che lega la natura con l’esistenza stessa, la vita, sono tutti presenti nella “Pastorale” come anche nei brani di Liszt che completano l’album: dal carattere bucolico dell’Allegro Pastorale e della Pastorale n. 3 al senso di caducità dell’esistenza della Totentanz.

Track List:
[00:40] 01. Maurizio Baglini - Theme (Allegro risoluto)
[00:58] 02. Maurizio Baglini - Var. 1
[00:39] 03. Maurizio Baglini - Var. 2
[01:08] 04. Maurizio Baglini - Var. 3
[00:49] 05. Maurizio Baglini - Var. 4
[00:56] 06. Maurizio Baglini - Var. 5
[01:38] 07. Maurizio Baglini - Var. 6 (Presto)
[00:37] 08. Maurizio Baglini - Coda (Tempo I)
[10:11] 09. Maurizio Baglini - I. Erwachen heiterer Empfindungen bei der Ankunft auf dem Lande. Allegro ma non troppo
[12:45] 10. Maurizio Baglini - II. Scene am Bach. Andante molto moto
[05:24] 11. Maurizio Baglini - III. Lustiges Zusammensein der Landleute. Allegro
[03:58] 12. Maurizio Baglini - IV. Gewitter. Sturm. Allegro
[10:26] 13. Maurizio Baglini - V. Hirtengesang. Frohe und dankbare Gefühle nach dem Sturm. Allegretto
[02:05] 14. Maurizio Baglini - Andante - Presto - Allegro - Allegro moderato
[00:47] 15. Maurizio Baglini - Var. 1 (Allegro moderato)
[00:48] 16. Maurizio Baglini - Var. 2
[00:35] 17. Maurizio Baglini - Var. 3 (Molto vivace)
[02:38] 18. Maurizio Baglini - Var. 4. Canonique (Lent) - Presto
[05:03] 19. Maurizio Baglini - Var. 5. Fugato (Vivace) - Cadenza
[04:30] 20. Maurizio Baglini - Sempre allegro, ma non troppo - Un poco meno allegro - Presto
[03:56] 21. Maurizio Baglini - No. 7c, Allegro pastorale
[02:11] 22. Maurizio Baglini - No. 3, Pastorale

foobar2000 1.6.10 / Dynamic Range Meter 1.1.1
log date: 2022-06-30 19:38:33

––––––––––––––––––––––––––––––––––––––––
Analyzed: Maurizio Baglini / Nature & Life
––––––––––––––––––––––––––––––––––––––––

DR Peak RMS Duration Track
––––––––––––––––––––––––––––––––––––––––
DR13 -5.55 dB -24.25 dB 0:41 01-Theme (Allegro risoluto)
DR12 -17.90 dB -34.18 dB 0:58 02-Var. 1
DR13 -6.87 dB -23.74 dB 0:40 03-Var. 2
DR12 -17.80 dB -35.63 dB 1:08 04-Var. 3
DR13 -8.91 dB -29.09 dB 0:49 05-Var. 4
DR10 -10.77 dB -25.99 dB 0:57 06-Var. 5
DR13 -6.58 dB -24.96 dB 1:38 07-Var. 6 (Presto)
DR14 -5.77 dB -25.57 dB 0:37 08-Coda (Tempo I)
DR13 -3.79 dB -22.69 dB 10:11 09-I. Erwachen heiterer Empfindungen bei der Ankunft auf dem Lande. Allegro ma non troppo
DR15 -6.47 dB -26.65 dB 12:45 10-II. Scene am Bach. Andante molto moto
DR12 -1.63 dB -20.73 dB 5:24 11-III. Lustiges Zusammensein der Landleute. Allegro
DR12 -2.68 dB -19.51 dB 3:58 12-IV. Gewitter. Sturm. Allegro
DR14 -2.34 dB -23.00 dB 10:27 13-V. Hirtengesang. Frohe und dankbare Gefühle nach dem Sturm. Allegretto
DR13 -0.67 dB -17.69 dB 2:06 14-Andante - Presto - Allegro - Allegro moderato
DR12 -5.85 dB -22.96 dB 0:48 15-Var. 1 (Allegro moderato)
DR12 -1.08 dB -17.83 dB 0:48 16-Var. 2
DR11 -5.95 dB -20.15 dB 0:35 17-Var. 3 (Molto vivace)
DR15 -4.86 dB -26.81 dB 2:39 18-Var. 4. Canonique (Lent) - Presto
DR13 -1.78 dB -19.01 dB 5:03 19-Var. 5. Fugato (Vivace) - Cadenza
DR13 -3.00 dB -20.61 dB 4:31 20-Sempre allegro, ma non troppo - Un poco meno allegro - Presto
DR14 -7.32 dB -28.47 dB 3:56 21-No. 7c, Allegro pastorale
DR10 -15.85 dB -32.96 dB 2:11 22-No. 3, Pastorale
––––––––––––––––––––––––––––––––––––––––

Number of tracks: 22
Official DR value: DR13

Samplerate: 96000 Hz
Channels: 2
Bits per sample: 24
Bitrate: 1889 kbps
Codec: FLAC
================================================================================