Tags
Language
Tags
April 2024
Su Mo Tu We Th Fr Sa
31 1 2 3 4 5 6
7 8 9 10 11 12 13
14 15 16 17 18 19 20
21 22 23 24 25 26 27
28 29 30 1 2 3 4

Mădălina Pavăl - Roiesc (2022)

Posted By: v3122
Mădălina Pavăl - Roiesc (2022)

Mădălina Pavăl - Roiesc (2022)
FLAC (Tracks) 24-bit/44.1 kHz | Official Digital Download | Time: 00:37:15
Folk, Singer-songwriter | Asphalt Tango Records | ~ 448 Mb

Mădălina Pavăl grew up in the Bucovina region of Romania. Since early years she began collecting and singing traditional Romanian music. Throughout her many travels around the country she got to gather the old roots of local folklore - rural rituals, connection to nature, the solitude and celebration of love, old curses and spiritual healing - all and each vividly exposed in the art of singing. Mădălina became known in Romania for her extensive collaboration with the band Subcarpați and for her debut album "Oamenii se fac dor" (People miss each other), released in 2019 and album which combined Bucovina folklore with urban rhythms and modern vibes.

In 2021 Mădălina had the opportunity to gather around her 12 talented musicians with a background in the Romanian classical and alternative music scene for the project „Mădălina Pavăl Live Orchestra“, an endeavour carefully curated by the producer and artist Alexei Țurcan. Together they gave birth to the eight songs of the latest album "ROIESC" (to swarm), a musical project that re-emphasize everything what we call origins and roots.
Mădălina Pavăl - Roiesc (2022):

Tracklist:

01 - 100 de ploi (00:05:03)
02 - Luna (00:04:25)
03 - Iesi, Soare! (00:04:37)
04 - Soarta muta (00:04:18)
05 - Vino pan la Bucuresti (00:03:56)
06 - Duilala (00:05:31)
07 - Nu ai nume (00:04:38)
08 - Uda (00:04:44)

foobar2000 1.4.2 / Dynamic Range Meter 1.1.1
log date: 2022-05-26 17:16:18

––––––––––––––––––––––––––––––––––––––––
Analyzed: Madalina Paval / Roiesc
––––––––––––––––––––––––––––––––––––––––

DR Peak RMS Duration Track
––––––––––––––––––––––––––––––––––––––––
DR7 -0.96 dB -9.98 dB 5:03 01-100 de ploi
DR7 -1.00 dB -10.69 dB 4:25 02-LunДѓ
DR6 -1.00 dB -10.57 dB 4:37 03-IeИ™i, Soare!
DR6 -0.98 dB -10.00 dB 4:18 04-SoartДѓ mutДѓ
DR7 -1.00 dB -9.86 dB 3:57 05-Vino pГўn la BucureИ™ti
DR6 -1.00 dB -9.52 dB 5:32 06-Duilala
DR6 -0.98 dB -8.66 dB 4:39 07-Nu ai nume
DR6 -0.99 dB -9.68 dB 4:44 08-Uda
––––––––––––––––––––––––––––––––––––––––

Number of tracks: 8
Official DR value: DR6

Samplerate: 44100 Hz
Channels: 2
Bits per sample: 24
Bitrate: 1606 kbps
Codec: FLAC

All thanks go to the original releaser

Download Mădălina Pavăl - Roiesc (2022):