Tags
Language
Tags
September 2022
Su Mo Tu We Th Fr Sa
28 29 30 31 1 2 3
4 5 6 7 8 9 10
11 12 13 14 15 16 17
18 19 20 21 22 23 24
25 26 27 28 29 30 1

Lorne Balfe - Secret Headquarters (Music from the Motion Picture) (2022) [Official Digital Download]

Posted By: ciklon5
Lorne Balfe - Secret Headquarters (Music from the Motion Picture) (2022) [Official Digital Download]

Lorne Balfe - Secret Headquarters (Music from the Motion Picture) (2022) [Official Digital Download]
FLAC (tracks), Lossless [24bit-44kHz] | 46:28 | 513 Mb
Genre: Soundtrack / Label: Paramount Music

Secret Headquarters is an upcoming American superhero film directed by Henry Joost and Ariel Schulman, who co-wrote the movie with Christopher L. Yost and Josh Koenigsberg, based on a story by Yost.
The film is set to be released in the United States on August 12, 2022, on Paramount+.
Lorne Balfe is a Scottish composer and producer of film, television, and video game scores. A veteran of Hans Zimmer's Remote Control Productions, Balfe is known for his composing music for big-budget films like 13 Hours: The Secret Soldiers of Benghazi, Terminator Genisys, Mission: Impossible – Fallout, and the DreamWorks Animation films Home and Penguins of Madagascar, as well as the video games Assassin's Creed: Revelations, Assassin's Creed III, Crysis 2, Skylanders and the Call of Duty franchise, as well as the new fanfare for Skydance Media, which debuted in The Adam Project. He has also scored the television series The Bible, Marcella, The Crown, and Genius, the latter for which he was nominated for a Primetime Emmy Award for Outstanding Original Main Title Theme Music.

Track List:
1 01. Lorne Balfe - Open the Portal (02:52)
1 02. Lorne Balfe - Secret Headquarters (03:32)
1 03. Lorne Balfe - The Gang (02:02)
1 04. Lorne Balfe - Love Prevails (01:51)
1 05. Lorne Balfe - Baseball Catch (03:30)
1 06. Lorne Balfe - End of Story (01:12)
1 07. Lorne Balfe - Argon's Journey (06:12)
1 08. Lorne Balfe - Father and Son (01:35)
1 09. Lorne Balfe - Blue Eagles (02:02)
1 10. Lorne Balfe - Not Bad for an IT Guy (01:34)
1 11. Lorne Balfe - The Winter Suit (01:18)
1 12. Lorne Balfe - Negotiate (02:40)
1 13. Lorne Balfe - Go Get Them (01:21)
1 14. Lorne Balfe - Hostage (02:54)
1 15. Lorne Balfe - Lizzy's Light (02:10)
1 16. Lorne Balfe - Holograms (02:43)
1 17. Lorne Balfe - Testing Time (02:28)
1 18. Lorne Balfe - Elevator Drop (01:03)
1 19. Lorne Balfe - Crashing Down (03:22)

foobar2000 1.6.10 / Dynamic Range Meter 1.1.1
log date: 2022-08-11 18:42:06

––––––––––––––––––––––––––––––––––––––––
Analyzed: Lorne Balfe / Secret Headquarters (Music from the Motion Picture)
––––––––––––––––––––––––––––––––––––––––

DR Peak RMS Duration Track
––––––––––––––––––––––––––––––––––––––––
DR6 -0.03 dB -11.14 dB 2:52 01-Open the Portal
DR6 -0.03 dB -8.73 dB 3:33 02-Secret Headquarters
DR5 0.00 dB -8.49 dB 2:02 03-The Gang
DR9 -0.06 dB -13.59 dB 1:52 04-Love Prevails
DR8 0.00 dB -13.70 dB 3:30 05-Baseball Catch
DR4 0.00 dB -9.11 dB 1:12 06-End of Story
DR5 -0.06 dB -9.13 dB 6:12 07-Argon's Journey
DR7 -0.03 dB -9.73 dB 1:36 08-Father and Son
DR7 -0.06 dB -11.65 dB 2:03 09-Blue Eagles
DR5 -0.04 dB -6.95 dB 1:35 10-Not Bad for an IT Guy
DR5 -0.05 dB -8.48 dB 1:19 11-The Winter Suit
DR7 -0.06 dB -9.86 dB 2:41 12-Negotiate
DR5 -0.05 dB -6.68 dB 1:21 13-Go Get Them
DR7 -0.06 dB -11.25 dB 2:54 14-Hostage
DR6 0.00 dB -9.41 dB 2:10 15-Lizzy's Light
DR6 0.00 dB -8.34 dB 2:43 16-Holograms
DR6 -0.05 dB -10.36 dB 2:29 17-Testing Time
DR7 0.00 dB -11.67 dB 1:03 18-Elevator Drop
DR4 0.00 dB -8.27 dB 3:22 19-Crashing Down
––––––––––––––––––––––––––––––––––––––––

Number of tracks: 19
Official DR value: DR6

Samplerate: 44100 Hz
Channels: 2
Bits per sample: 24
Bitrate: 1534 kbps
Codec: FLAC
================================================================================