Tags
Language
Tags

Kyle Dixon & Michael Stein - Stranger Things 4 (2022) [Official Digital Download]

Posted By: ciklon5
Kyle Dixon & Michael Stein - Stranger Things 4 (2022) [Official Digital Download]

Kyle Dixon & Michael Stein - Stranger Things 4 (2022) [Official Digital Download]
FLAC (tracks), Lossless [24bit-96kHz] | 3:02:12 | 2.59 Gb
Genre: Soundtrack / Label: Lakeshore Records

Legacy Recordings, a division of Sony Music Entertainment, is releasing Stranger Things: Soundtrack from the Netflix Series, Season 4 in digital, CD and cassette configurations with the digital edition of Season 4, Volume I premiering online today. Season 4, Volume II (featuring all of Volume I plus additional music from the season’s closing episodes) will debut online Friday, July 1.
Stranger Things: Soundtrack from the Netflix Series, Season 4 will include key music covering various classic eras and styles as featured in “Stranger Things 4.” The soundtrack album is conceptualized and produced by The Duffer Brothers and Nora Felder (Grammy and Emmy nominee Nora Felder has served as music supervisor for “Stranger Things” since the show’s inception and was nominated for a Music Supervision Grammy the first year the category was recognized by the Academy of Television Arts & Sciences). The compilation album is produced by The Duffer Brothers and 2x Grammy nominee Timothy J. Smith.

Track List:
1 01. Kyle Dixon & Michael Stein - What's the Internet? (02:47)
1 02. Kyle Dixon & Michael Stein - I wouldn’t remember me either. (01:49)
1 03. Kyle Dixon & Michael Stein - Teens (02:06)
1 04. Kyle Dixon & Michael Stein - Journalistic Instinct (02:37)
1 05. Kyle Dixon & Michael Stein - 100% Convinced (01:05)
1 06. Kyle Dixon & Michael Stein - In the closet (at Rink O Mania) (01:32)
1 07. Kyle Dixon & Michael Stein - Does that make us friends? (03:13)
1 08. Kyle Dixon & Michael Stein - My BOOBS Hurt. (01:09)
1 09. Kyle Dixon & Michael Stein - Unambiguous True Love (02:17)
1 10. Kyle Dixon & Michael Stein - Stuck in 1983 (02:57)
1 11. Kyle Dixon & Michael Stein - Hawkins National Lab (02:02)
1 12. Kyle Dixon & Michael Stein - Hellfire Club (02:04)
1 13. Kyle Dixon & Michael Stein - Buried Memories (02:49)
1 14. Kyle Dixon & Michael Stein - Fancy Bomb (01:48)
1 15. Kyle Dixon & Michael Stein - We are NOT Heroes (03:05)
1 16. Kyle Dixon & Michael Stein - Nine Feet Tall (01:38)
1 17. Kyle Dixon & Michael Stein - Hail Lord Vecna (01:58)
1 18. Kyle Dixon & Michael Stein - Powerful Psychic Connection (02:02)
1 19. Kyle Dixon & Michael Stein - Ruth, Nevada (00:45)
1 20. Kyle Dixon & Michael Stein - Hellfire Isn’t A Cult (01:23)
1 21. Kyle Dixon & Michael Stein - I Know What I Saw (02:08)
1 22. Kyle Dixon & Michael Stein - Curfew (01:29)
1 23. Kyle Dixon & Michael Stein - You’re Regressing Eleven (03:32)
1 24. Kyle Dixon & Michael Stein - Letter to Willy (03:47)
1 25. Kyle Dixon & Michael Stein - Palm Tree Delight (01:54)
1 26. Kyle Dixon & Michael Stein - Musso (02:12)
1 27. Kyle Dixon & Michael Stein - Brenner’s Little Pet (02:17)
1 28. Kyle Dixon & Michael Stein - Mr. Fibbly (01:37)
1 29. Kyle Dixon & Michael Stein - It’s just a clock, right? (02:16)
1 30. Kyle Dixon & Michael Stein - Welcome to Kamchatka (02:13)
1 31. Kyle Dixon & Michael Stein - A Nightmare Far Worse (03:31)
1 32. Kyle Dixon & Michael Stein - Caught a Body at the Munsen Trailer (01:12)
1 33. Kyle Dixon & Michael Stein - A War is coming to Hawkins (01:55)
1 34. Kyle Dixon & Michael Stein - The Elephant (02:15)
1 35. Kyle Dixon & Michael Stein - Hurtling Towards a Gruesome Death (01:32)
1 36. Kyle Dixon & Michael Stein - Barefoot in the snow (01:45)
1 37. Kyle Dixon & Michael Stein - Kills you in your dreams (01:19)
1 38. Kyle Dixon & Michael Stein - The Shire is Burning (00:55)
1 39. Kyle Dixon & Michael Stein - Blood Balloons (01:09)
1 40. Kyle Dixon & Michael Stein - Burning Baby (00:58)
1 41. Kyle Dixon & Michael Stein - Mugshot (02:29)
1 42. Kyle Dixon & Michael Stein - There are some things worse than ghosts… (04:46)
1 43. Kyle Dixon & Michael Stein - A memory within a memory (03:03)
2 44. Kyle Dixon & Michael Stein - A Proper Thump (01:58)
2 45. Kyle Dixon & Michael Stein - Hiiiiiiiii (02:38)
2 46. Kyle Dixon & Michael Stein - Still Dizzy (01:45)
2 47. Kyle Dixon & Michael Stein - Reign Fire From Above (01:34)
2 48. Kyle Dixon & Michael Stein - Religious American (02:13)
2 49. Kyle Dixon & Michael Stein - Surf that Tasty Pie (02:29)
2 50. Kyle Dixon & Michael Stein - Follow me into Death (01:54)
2 51. Kyle Dixon & Michael Stein - Project Nina (01:51)
2 52. Kyle Dixon & Michael Stein - Being Different (04:29)
2 53. Kyle Dixon & Michael Stein - Undressing (01:12)
2 54. Kyle Dixon & Michael Stein - I Want You To Watch (01:33)
2 55. Kyle Dixon & Michael Stein - A Realm Unspoiled by Mankind (04:21)
2 56. Kyle Dixon & Michael Stein - Four Gates (02:08)
2 57. Kyle Dixon & Michael Stein - Sleeping Dracula (03:09)
2 58. Kyle Dixon & Michael Stein - Praying something will happen to me (03:54)
2 59. Kyle Dixon & Michael Stein - Stained Glass Roses (02:34)
2 60. Kyle Dixon & Michael Stein - One (01:55)
2 61. Kyle Dixon & Michael Stein - Gates of Kamchatka (01:05)
2 62. Kyle Dixon & Michael Stein - Top Secret Location (01:52)
2 63. Kyle Dixon & Michael Stein - You’re The Heart (03:14)
2 64. Kyle Dixon & Michael Stein - Sleepyhead (01:51)
2 65. Kyle Dixon & Michael Stein - Skull Rock (01:49)
2 66. Kyle Dixon & Michael Stein - Spellcaster (03:58)
2 67. Kyle Dixon & Michael Stein - You Should Go East (01:43)
2 68. Kyle Dixon & Michael Stein - Unfortunate Development (02:21)
2 69. Kyle Dixon & Michael Stein - Slashing the Tires (01:30)
2 70. Kyle Dixon & Michael Stein - Soteria (01:17)
2 71. Kyle Dixon & Michael Stein - ELVIS CLONED BY ALIENS (01:34)
2 72. Kyle Dixon & Michael Stein -[delicate, intense music playing…] (03:25)
2 73. Kyle Dixon & Michael Stein - Demogorgons in Tanks (01:27)
2 74. Kyle Dixon & Michael Stein - The Cure (03:37)
2 75. Kyle Dixon & Michael Stein - Patient Confidentiality (02:00)
2 76. Kyle Dixon & Michael Stein - Stay Calm, Focus on the Game (02:27)
2 77. Kyle Dixon & Michael Stein - It’s Time Max (01:57)
2 78. Kyle Dixon & Michael Stein - All Evil Must Have A Home (04:40)
2 79. Kyle Dixon & Michael Stein - Flashlights, Flashlights (02:17)
2 80. Kyle Dixon & Michael Stein - You Have Already Lost (04:30)

foobar2000 1.6.10 / Dynamic Range Meter 1.1.1
log date: 2022-07-02 08:56:44

––––––––––––––––––––––––––––––––––––––––
Analyzed: Kyle Dixon & Michael Stein / Stranger Things 4 (Original Score From The Netflix Series)
––––––––––––––––––––––––––––––––––––––––

DR Peak RMS Duration Track
––––––––––––––––––––––––––––––––––––––––
DR13 -1.99 dB -16.65 dB 2:48 01-What's the Internet?
DR12 -4.23 dB -20.10 dB 1:50 02-I wouldn’t remember me either.
DR9 -0.11 dB -13.40 dB 2:06 03-Teens
DR12 -1.50 dB -16.02 dB 2:37 04-Journalistic Instinct
DR8 -4.14 dB -15.50 dB 1:05 05-100% Convinced
DR9 -3.63 dB -16.93 dB 1:32 06-In the closet (at Rink O Mania)
DR9 -3.19 dB -17.02 dB 3:14 07-Does that make us friends?
DR11 -2.20 dB -18.74 dB 1:09 08-My BOOBS Hurt.
DR11 -0.98 dB -19.04 dB 2:17 09-Unambiguous True Love
DR10 -2.35 dB -16.31 dB 2:57 10-Stuck in 1983
DR10 -1.67 dB -16.05 dB 2:02 11-Hawkins National Lab
DR11 -1.99 dB -17.17 dB 2:04 12-Hellfire Club
DR9 -2.69 dB -16.52 dB 2:49 13-Buried Memories
DR12 -1.23 dB -19.61 dB 1:48 14-Fancy Bomb
DR12 -0.53 dB -16.94 dB 3:06 15-We are NOT Heroes
DR12 -0.65 dB -17.09 dB 1:38 16-Nine Feet Tall
DR10 -1.37 dB -14.29 dB 1:59 17-Hail Lord Vecna
DR9 -3.17 dB -15.58 dB 2:02 18-Powerful Psychic Connection
DR10 -3.64 dB -17.27 dB 0:45 19-Ruth, Nevada
DR9 -3.42 dB -16.91 dB 1:24 20-Hellfire Isn’t A Cult
DR11 -0.11 dB -17.51 dB 2:08 21-I Know What I Saw
DR10 -3.24 dB -16.43 dB 1:29 22-Curfew
DR9 -3.68 dB -17.64 dB 3:32 23-You’re Regressing Eleven
DR10 -2.55 dB -15.61 dB 3:47 24-Letter to Willy
DR15 -0.11 dB -20.37 dB 1:54 25-Palm Tree Delight
DR13 -0.34 dB -18.48 dB 2:12 26-Musso
DR11 -3.59 dB -19.92 dB 2:18 27-Brenner’s Little Pet
DR12 -2.92 dB -21.30 dB 1:37 28-Mr. Fibbly
DR10 -5.02 dB -19.99 dB 2:17 29-It’s just a clock, right?
DR9 -7.13 dB -18.32 dB 2:14 30-Welcome to Kamchatka
DR11 -6.95 dB -22.54 dB 3:31 31-A Nightmare Far Worse
DR7 -8.67 dB -19.98 dB 1:13 32-Caught a Body at the Munsen Trailer
DR10 -5.75 dB -19.36 dB 1:55 33-A War is coming to Hawkins
DR11 -8.88 dB -23.36 dB 2:16 34-The Elephant
DR11 -4.93 dB -18.64 dB 1:33 35-Hurtling Towards a Gruesome Death
DR12 -0.54 dB -22.10 dB 1:45 36-Barefoot in the snow
DR11 -5.04 dB -22.48 dB 1:20 37-Kills you in your dreams
DR12 -3.10 dB -20.42 dB 0:55 38-The Shire is Burning
DR8 -6.81 dB -17.87 dB 1:09 39-Blood Balloons
DR11 -3.63 dB -18.96 dB 0:59 40-Burning Baby
DR10 -0.11 dB -17.94 dB 2:30 41-Mugshot
DR13 -4.27 dB -21.45 dB 4:47 42-There are some things worse than ghosts…
DR11 -13.59 dB -29.33 dB 3:04 43-A memory within a memory
DR10 -2.61 dB -18.43 dB 1:58 44-A Proper Thump
DR8 -5.07 dB -15.85 dB 2:38 45-Hiiiiiiiii
DR10 -5.22 dB -19.36 dB 1:46 46-Still Dizzy
DR12 -2.55 dB -19.77 dB 1:34 47-Reign Fire From Above
DR10 -5.74 dB -20.85 dB 2:14 48-Religious American
DR12 -2.94 dB -20.27 dB 2:30 49-Surf that Tasty Pie
DR11 -0.11 dB -19.63 dB 1:54 50-Follow me into Death
DR10 -4.44 dB -17.06 dB 1:52 51-Project Nina
DR10 -3.88 dB -18.52 dB 4:30 52-Being Different
DR9 -6.51 dB -21.02 dB 1:13 53-Undressing
DR10 -4.13 dB -18.87 dB 1:34 54-I Want You To Watch
DR11 -0.11 dB -18.94 dB 4:22 55-A Realm Unspoiled by Mankind
DR8 -2.13 dB -18.48 dB 2:09 56-Four Gates
DR12 -1.16 dB -16.90 dB 3:09 57-Sleeping Dracula
DR10 -6.14 dB -20.82 dB 3:54 58-Praying something will happen to me
DR10 -4.55 dB -18.38 dB 2:34 59-Stained Glass Roses
DR11 -1.71 dB -19.14 dB 1:56 60-One
DR7 -4.30 dB -18.66 dB 1:05 61-Gates of Kamchatka
DR10 -3.10 dB -17.41 dB 1:53 62-Top Secret Location
DR10 -5.91 dB -20.77 dB 3:14 63-You’re The Heart
DR10 -3.27 dB -21.32 dB 1:52 64-Sleepyhead
DR12 -0.11 dB -17.07 dB 1:49 65-Skull Rock
DR10 -9.85 dB -22.46 dB 3:58 66-Spellcaster
DR10 -4.38 dB -20.40 dB 1:44 67-You Should Go East
DR11 -4.26 dB -19.78 dB 2:22 68-Unfortunate Development
DR11 -4.44 dB -20.67 dB 1:30 69-Slashing the Tires
DR11 -1.84 dB -19.29 dB 1:18 70-Soteria
DR11 -4.52 dB -19.76 dB 1:35 71-ELVIS CLONED BY ALIENS
DR10 -4.86 dB -19.67 dB 3:26 72-[delicate, intense music playing…]
DR12 -1.53 dB -20.22 dB 1:28 73-Demogorgons in Tanks
DR11 -3.97 dB -20.10 dB 3:38 74-The Cure
DR11 -13.70 dB -29.00 dB 2:00 75-Patient Confidentiality
DR14 -0.11 dB -22.03 dB 2:28 76-Stay Calm, Focus on the Game
DR12 -2.61 dB -20.77 dB 1:58 77-It’s Time Max
DR12 -3.12 dB -19.85 dB 4:40 78-All Evil Must Have A Home
DR11 -2.05 dB -20.73 dB 2:18 79-Flashlights, Flashlights
DR12 -3.39 dB -19.02 dB 4:31 80-You Have Already Lost
––––––––––––––––––––––––––––––––––––––––

Number of tracks: 80
Official DR value: DR11

Samplerate: 96000 Hz
Channels: 2
Bits per sample: 24
Bitrate: 2180 kbps
Codec: FLAC
================================================================================