Tags
Language
Tags

John Coltrane - Cattin' With Coltrane And Quinichette (1959/2016) [Official Digital Download 24/192]

Posted By: pyatak
John Coltrane - Cattin' With Coltrane And Quinichette (1959/2016) [Official Digital Download 24/192]

John Coltrane - Cattin' With Coltrane And Quinichette (1959/2016) [Official Digital Download 24/192]
FLAC (tracks) 24-bit/192 kHz | Front Cover | Time - 47:31 minutes | 1,45 GB
Jazz | Label: Prestige, Official Digital Download

Cattin' with Coltrane and Quinichette is an album by jazz musicians John Coltrane and Paul Quinichette, released in 1959 on Prestige Records, catalogue 7158. It was recorded at the studio of Rudy Van Gelder in Hackensack, New Jersey, and issued two years after the recording sessions took place, and after Coltrane's contract had already run out with the label.

TRACKLIST

1. John Coltrane - Cattin'
2. John Coltrane - Sunday
3. John Coltrane - Exactly Like You
4. John Coltrane - Anatomy
5. John Coltrane - Vodka
6. John Coltrane - Tea For Two

foobar2000 1.6.2 / Dynamic Range Meter 1.1.1
log date: 2021-05-09 18:21:25

––––––––––––––––––––––––––––––––––––––––
Analyzed: John Coltrane / Cattin' With Coltrane And Quinichette
––––––––––––––––––––––––––––––––––––––––

DR Peak RMS Duration Track
––––––––––––––––––––––––––––––––––––––––
DR10 -0.20 dB -12.23 dB 7:25 01-Cattin'
DR9 -0.20 dB -11.14 dB 7:03 02-Sunday
DR10 -0.20 dB -11.88 dB 6:51 03-Exactly Like You
DR11 -0.20 dB -12.45 dB 8:54 04-Anatomy
DR11 -0.20 dB -12.26 dB 9:10 05-Vodka
DR9 -0.20 dB -11.35 dB 8:08 06-Tea For Two
––––––––––––––––––––––––––––––––––––––––

Number of tracks: 6
Official DR value: DR10

Samplerate: 192000 Hz
Channels: 2
Bits per sample: 24
Bitrate: 5693 kbps
Codec: FLAC
================================================================================



Thanks to the Original customer.