Tags
Language
Tags

Jean-Nicolas Diatkine - Liszt - Piano transcriptions of Schubert and Wagner (2022) [Official Digital Download 24/96]

Posted By: pyatak
Jean-Nicolas Diatkine - Liszt - Piano transcriptions of Schubert and Wagner (2022) [Official Digital Download 24/96]

Jean-Nicolas Diatkine - Liszt - Piano transcriptions of Schubert and Wagner (2022) [Official Digital Download 24/96]
FLAC (tracks) 24-bit/96 kHz | Front Cover | Time - 75:11 minutes | 1,15 GB
Classical | Studio Master, Official Digital Download

Some of Jean-Nicolas Diatkine's singer friends have ended their careers, but their magic is irreplaceable in his eyes, or rather in his ears. He misses them, just as he misses the Schubert, Schumann and Brahms songs they sang. Well, there is only one person who can compensate for this loss, and his name is Franz Liszt. The main aim of transcriptions was to make orchestral works known to a wider audience, at a time when there were far fewer orchestras, and public access to symphony concerts was very limited. But Liszt gives transcriptions a new meaning: he puts the orchestra into the piano, since his style is particularly suited to outsized extravagance. Thus he opens up unprecedented pianistic possibilities, where virtuosity is no longer mere exhibitionism but rather transformed into the art of illusion. His arrangements of Wagner are so convincing that they become his own personal creations.

Laurent Bessières, piano tuner at the Paris Philharmonic, suggested for this recording a Schiedmayer piano of 1916 made in Stuttgart, which he had completely rebuilt in collaboration with Antoine Letessier-Salmon, director of the French National Centre for Scientific Research, and Stephen Paulello, piano maker and inventor of the strings that bear his name. This instrument has almost never been used in concert, however excellent work by Laurent Bessières convinced us to try it out in this very special repertoire.

TRACKLIST

01. Jean-Nicolas Diatkine - Auf dem Wasser zu singen D 774
02. Jean-Nicolas Diatkine - Gretchen am Spinnrade, Op. 218 D 118
03. Jean-Nicolas Diatkine - Rastlose Liebe D 138
04. Jean-Nicolas Diatkine - Ave Maria D 839
05. Jean-Nicolas Diatkine - Erlkönig, Op. 1 D 328
06. Jean-Nicolas Diatkine - Liebesbotschaft (Schwanengesang, D 957)
07. Jean-Nicolas Diatkine - Ständchen (Schwanengesang, D 957)
08. Jean-Nicolas Diatkine - Der Atlas (Schwanengesang, D 957)
09. Jean-Nicolas Diatkine - Der Doppelgänger (Schwanengesang, D 957)
10. Jean-Nicolas Diatkine - Ballade No. 2 h-moll
11. Jean-Nicolas Diatkine - Isolde's Liebestod (Tristan und Isolde)
12. Jean-Nicolas Diatkine - Elsas Brautzug zum Münster (Lohengrin)
13. Jean-Nicolas Diatkine - Pilgerchor (Tannhäuser)
14. Jean-Nicolas Diatkine - Feierlicher Marsch zum heiligen Gral (Parsifal)

foobar2000 1.6.2 / Dynamic Range Meter 1.1.1
log date: 2022-05-24 19:57:28

––––––––––––––––––––––––––––––––––––––––
Analyzed: Jean-Nicolas Diatkine / Franz Liszt - Piano transcriptions of Schubert and Wagner
––––––––––––––––––––––––––––––––––––––––

DR Peak RMS Duration Track
––––––––––––––––––––––––––––––––––––––––
DR13 -3.91 dB -21.90 dB 4:30 01-Auf dem Wasser zu singen D 774
DR16 0.00 dB -22.51 dB 4:31 02-Gretchen am Spinnrade, Op. 218 D 118
DR12 -1.46 dB -18.83 dB 1:42 03-Rastlose Liebe D 138
DR14 -7.35 dB -26.32 dB 5:30 04-Ave Maria D 839
DR13 -2.59 dB -21.46 dB 4:05 05-Erlkönig, Op. 1 D 328
DR12 -10.54 dB -26.64 dB 3:17 06-Liebesbotschaft (Schwanengesang, D 957)
DR17 -3.56 dB -28.16 dB 5:52 07-Ständchen (Schwanengesang, D 957)
DR14 -0.03 dB -19.44 dB 2:35 08-Der Atlas (Schwanengesang, D 957)
DR15 -4.29 dB -26.96 dB 4:31 09-Der Doppelgänger (Schwanengesang, D 957)
DR16 0.00 dB -21.87 dB 13:59 10-Ballade No. 2 h-moll
DR15 0.00 dB -21.61 dB 6:55 11-Isolde's Liebestod (Tristan und Isolde)
DR14 -6.35 dB -28.21 dB 4:03 12-Elsas Brautzug zum Münster (Lohengrin)
DR13 -3.03 dB -24.27 dB 5:18 13-Pilgerchor (Tannhäuser)
DR14 -0.38 dB -21.76 dB 8:25 14-Feierlicher Marsch zum heiligen Gral (Parsifal)
––––––––––––––––––––––––––––––––––––––––

Number of tracks: 14
Official DR value: DR14

Samplerate: 96000 Hz
Channels: 2
Bits per sample: 24
Bitrate: 2158 kbps
Codec: FLAC
================================================================================



Thanks to the Original customer.