Tags
Language
Tags

Isabella Summers - The Offer (2022) [Official Digital Download]

Posted By: ciklon5
Isabella Summers - The Offer (2022) [Official Digital Download]

Isabella Summers - The Offer (2022) [Official Digital Download]
FLAC (tracks), Lossless [24bit-44kHz] | 1:01:04 | 635 Mb
Genre: Soundtrack / Label: Paramount Music

Paramount Music will release a soundtrack album for the Paramount+ limited series The Offer. The album features the show’s original music composed by Isabella Summers (aka Isa Machine of Florence + the Machine) (Little Fires Everywhere, Panic, Sex/Life, Call Jane, Physical). The soundtrack will be released digitally tomorrow, July 1. The streaming/download link will be added to this article soon. The Offer is is created by Michael Tolkin and stars Miles Teller, Matthew Goode, Juno Temple, Dan Fogler, Giovanni Ribisi, Burn Gorman, Colin Hanks and Patrick Gallo. The 10-part drama is based on producer Albert S. Ruddy’s experiences of making Francis Ford Coppola’s The Godfather, one of the most legendary films in Paramount’s history. The series premiered over the last two months and is now available to stream on Paramount+.

Track List:
[01:24] 01. Isabella Summers - The Offer - Main Title
[01:02] 02. Isabella Summers - Ice Blue
[02:06] 03. Isabella Summers - Movies
[01:00] 04. Isabella Summers - Hallowed Ground
[01:25] 05. Isabella Summers - Meet Barry / Read the Script
[02:36] 06. Isabella Summers - Capo
[00:33] 07. Isabella Summers - Puzo Sold Out
[01:29] 08. Isabella Summers - Thanks Bob
[00:48] 09. Isabella Summers - Dead Rat
[00:46] 10. Isabella Summers - Redford
[01:40] 11. Isabella Summers - We Tried
[01:38] 12. Isabella Summers - Brando Wants the Don
[01:05] 13. Isabella Summers - Becoming the Godfather
[05:04] 14. Isabella Summers - Gallo Remains Columbo
[03:10] 15. Isabella Summers - Family Dinner
[04:56] 16. Isabella Summers - Sinatra's Dressing Room
[01:33] 17. Isabella Summers - Do You Know Who I Am?
[02:29] 18. Isabella Summers - You Should Have Stayed in Prison
[01:56] 19. Isabella Summers - You're One of Us Now
[02:06] 20. Isabella Summers - Slow Waltz
[02:21] 21. Isabella Summers - Get in the Car
[03:53] 22. Isabella Summers - This Is Who We Are
[04:01] 23. Isabella Summers - I Just Do Whatever My Friend Joe Asks
[01:18] 24. Isabella Summers - Thirty-Five Thousand Lira
[01:31] 25. Isabella Summers - Evans Returns
[04:27] 26. Isabella Summers - The Academy Awards
[02:10] 27. Isabella Summers - The Offer - End Credits
[02:22] 28. Isabella Summers - The Offer Waltz (Og Demo)

foobar2000 1.6.10 / Dynamic Range Meter 1.1.1
log date: 2022-06-30 21:29:25

––––––––––––––––––––––––––––––––––––––––
Analyzed: Isabella Summers / The Offer (Music from the Limited Series)
––––––––––––––––––––––––––––––––––––––––

DR Peak RMS Duration Track
––––––––––––––––––––––––––––––––––––––––
DR7 -0.06 dB -11.44 dB 1:25 01-The Offer - Main Title
DR8 -0.10 dB -11.64 dB 1:03 02-Ice Blue
DR14 -0.07 dB -18.74 dB 2:07 03-Movies
DR8 -0.45 dB -11.01 dB 1:00 04-Hallowed Ground
DR9 -0.06 dB -12.13 dB 1:25 05-Meet Barry / Read the Script
DR9 0.00 dB -13.69 dB 2:37 06-Capo
DR8 -0.06 dB -10.92 dB 0:33 07-Puzo Sold Out
DR9 -0.05 dB -11.56 dB 1:30 08-Thanks Bob
DR9 -0.06 dB -11.33 dB 0:49 09-Dead Rat
DR8 -0.06 dB -10.39 dB 0:46 10-Redford
DR9 -0.06 dB -11.66 dB 1:41 11-We Tried
DR10 -0.04 dB -11.88 dB 1:38 12-Brando Wants the Don
DR9 -1.28 dB -15.21 dB 1:06 13-Becoming the Godfather
DR7 -0.06 dB -10.91 dB 5:05 14-Gallo Remains Columbo
DR7 -0.80 dB -13.35 dB 3:10 15-Family Dinner
DR7 -0.06 dB -10.80 dB 4:57 16-Sinatra's Dressing Room
DR11 -0.06 dB -14.33 dB 1:34 17-Do You Know Who I Am?
DR9 -0.06 dB -11.53 dB 2:30 18-You Should Have Stayed in Prison
DR9 -0.06 dB -11.39 dB 1:57 19-You're One of Us Now
DR10 -0.06 dB -12.79 dB 2:07 20-Slow Waltz
DR8 -0.06 dB -11.86 dB 2:22 21-Get in the Car
DR9 -0.07 dB -13.08 dB 3:54 22-This Is Who We Are
DR8 -0.06 dB -12.68 dB 4:01 23-I Just Do Whatever My Friend Joe Asks
DR9 -0.37 dB -11.63 dB 1:18 24-Thirty-Five Thousand Lira
DR10 -0.07 dB -14.50 dB 1:31 25-Evans Returns
DR8 -0.06 dB -14.06 dB 4:28 26-The Academy Awards
DR7 -0.06 dB -9.45 dB 2:11 27-The Offer - End Credits
DR9 -0.08 dB -13.45 dB 2:22 28-The Offer Waltz (Og Demo)
––––––––––––––––––––––––––––––––––––––––

Number of tracks: 28
Official DR value: DR9

Samplerate: 44100 Hz
Channels: 2
Bits per sample: 24
Bitrate: 1401 kbps
Codec: FLAC
================================================================================