Tags
Language
Tags
March 2024
Su Mo Tu We Th Fr Sa
25 26 27 28 29 1 2
3 4 5 6 7 8 9
10 11 12 13 14 15 16
17 18 19 20 21 22 23
24 25 26 27 28 29 30
31 1 2 3 4 5 6

Georgia Brown - Sings A Little Of What You Fancy (1969/2018) [Official Digital Download 24/96]

Posted By: pyatak
Georgia Brown - Sings A Little Of What You Fancy (1969/2018) [Official Digital Download 24/96]

Georgia Brown - Sings A Little Of What You Fancy (1969/2018) [Official Digital Download 24/96]
FLAC (tracks) 24-bit/96 kHz | Front Cover | Time - 34:10 minutes | 620 MB
Vocal Jazz | Studio Master, Official Digital Download

GEORGIA BROWN with TED HEATH Sings A Little Of What You Fancy (1969 UK 12-track stereo LP, originally released in 1962, housed in a front laminated picture sleeve with album notes from Lionel Bart. The sleeve shows only a minor spot of edge wear& the vinyl is in superb Excellent condition ECS2011)

TRACKLIST

1. Georgia Brown - A Little Of What You Fancy (Remastered)
2. Georgia Brown - I Live In Trafalgar Square (Remastered)
3. Georgia Brown - Bill Bailey, Won't You Please Come Home? (Remastered)
4. Georgia Brown - For Months And Months And Months (Remastered)
5. Georgia Brown - Wot Cher! (Knocked 'Em In The Old Kent Road) (Remastered)
6. Georgia Brown - Don't Dilly-Dally On The Way (Remastered)
7. Georgia Brown - I Was A Good Little Girl 'Till I Met You (Remastered)
8. Georgia Brown - A Broken Doll (Remastered)
9. Georgia Brown - When You're All Dressed Up And No Place To Go (Remastered)
10. Georgia Brown - The Honeysuckle And The Bee (Remastered)
11. Georgia Brown - If You Were The Only Girl In The World (Remastered)
12. Georgia Brown - Ta-ra-ra-boom-de-ay (Remastered)

foobar2000 1.6.2 / Dynamic Range Meter 1.1.1
log date: 2023-10-16 16:11:14

––––––––––––––––––––––––––––––––––––––––
Analyzed: Georgia Brown / Sings A Little Of What You Fancy
––––––––––––––––––––––––––––––––––––––––

DR Peak RMS Duration Track
––––––––––––––––––––––––––––––––––––––––
DR9 0.00 dB -12.21 dB 3:09 01-A Little Of What You Fancy (Remastered)
DR10 -0.69 dB -13.55 dB 3:50 02-I Live In Trafalgar Square (Remastered)
DR9 -2.14 dB -16.18 dB 3:20 03-Bill Bailey, Won't You Please Come Home? (Remastered)
DR10 -2.53 dB -16.12 dB 0:48 04-For Months And Months And Months (Remastered)
DR9 0.00 dB -11.09 dB 1:52 05-Wot Cher! (Knocked 'Em In The Old Kent Road) (Remastered)
DR8 0.00 dB -10.98 dB 2:08 06-Don't Dilly-Dally On The Way (Remastered)
DR10 -0.41 dB -15.65 dB 3:25 07-I Was A Good Little Girl 'Till I Met You (Remastered)
DR9 -1.01 dB -14.27 dB 2:23 08-A Broken Doll (Remastered)
DR12 -0.63 dB -17.89 dB 3:37 09-When You're All Dressed Up And No Place To Go (Remastered)
DR12 -0.27 dB -15.06 dB 2:58 10-The Honeysuckle And The Bee (Remastered)
DR11 -1.94 dB -17.79 dB 3:36 11-If You Were The Only Girl In The World (Remastered)
DR10 -1.84 dB -15.81 dB 3:03 12-Ta-ra-ra-boom-de-ay (Remastered)
––––––––––––––––––––––––––––––––––––––––

Number of tracks: 12
Official DR value: DR10

Samplerate: 96000 Hz
Channels: 2
Bits per sample: 24
Bitrate: 2481 kbps
Codec: FLAC
================================================================================



Thanks to the Original customer.