Tags
Language
Tags
November 2022
Su Mo Tu We Th Fr Sa
30 31 1 2 3 4 5
6 7 8 9 10 11 12
13 14 15 16 17 18 19
20 21 22 23 24 25 26
27 28 29 30 1 2 3

Evariste - Il Ne Pense Qu'à Ça (1967 - 1970) (2022)

Posted By: v3122
Evariste - Il Ne Pense Qu'à Ça (1967 - 1970) (2022)

Evariste - Il Ne Pense Qu'à Ça (1967 - 1970) (2022)
FLAC (Tracks) 24-bit/44.1 kHz | Official Digital Download | Time: 00:38:35
Psychedelic, Pop Rock | Born Bad Records | ~ 460 Mb

Evariste's songwriting, joyful and full of energy - albeit extremely critical - shrouds an original tragedy: born in 1943 among resistance fighters, Joël Sternheimer made little reference to Jewish culture in his music, but his origins left their mark. Likely inspired by the hippie movement and music, Joël bought a guitar and starts playing on Washington Square - the same place where Bob Dylan started. His first 7" release was recorded by Michel Colombier, the arranger for Serge Gainsbourg, and Pierre Henry. Evariste recorded a number of 7" records and composed music for some plays until the early 70's. Then his career came to a halt, as critics accused him of 'mixing science with science fiction', as a way to censor his political discourse. This compilation brings together his recordings from his brief era of fame…
Evariste - Il Ne Pense Qu'à Ça (1967 - 1970) (2022):

Tracklist:

01 - Connais Tu L'animal Qui Inventa Le Calcul Integral (00:02:48)
02 - Evariste Aux Fans (00:02:47)
03 - Les Pommes De Lune (00:02:41)
04 - La Chasse Au Boson Intermediaire (00:03:23)
05 - Dans La Lune (00:02:18)
06 - La Faute À Nanterre (00:03:40)
07 - Ma Mie (00:02:34)
08 - Wo I Nee (00:02:46)
09 - Si J'ai Les Cheveux Longs C'est Pour Pas M'enrhumer, Atchoum ! (00:01:59)
10 - La Revolution (00:02:20)
11 - Je Ne Pense Qu'a Ça (00:04:08)
12 - Je Chante Pour Vous Faire Marcher (00:01:41)
13 - Je Ne Suis Pas Simple (00:01:20)
14 - Si Les etoiles Pouvaient Parler (00:04:06)

foobar2000 1.4.2 / Dynamic Range Meter 1.1.1
log date: 2022-06-18 09:00:23

––––––––––––––––––––––––––––––––––––––––
Analyzed: Evariste / Il ne pense qu'Г Г§a (1967 - 1970)
––––––––––––––––––––––––––––––––––––––––

DR Peak RMS Duration Track
––––––––––––––––––––––––––––––––––––––––
DR4 -0.50 dB -5.77 dB 2:48 01-Connais tu l'animal qui inventa le calcul integral?
DR6 -0.50 dB -7.82 dB 2:47 02-Evariste aux fans
DR6 -0.50 dB -8.62 dB 2:42 03-Les pommes de lune
DR6 -0.50 dB -7.79 dB 3:24 04-La chasse au Boson intermГ©diaire
DR5 -0.50 dB -6.99 dB 2:18 05-Dans la lune
DR5 -0.50 dB -8.81 dB 3:41 06-La faute Г Nanterre
DR6 -0.50 dB -7.29 dB 2:34 07-Ma mie
DR6 -0.50 dB -6.96 dB 2:46 08-Wo I nee
DR6 -0.50 dB -7.38 dB 1:59 09-Si j'ai les cheveux longs c'est pour pas m'enrhumer, atchoum !
DR7 -0.50 dB -8.06 dB 2:20 10-La rГ©volution
DR5 -0.50 dB -6.91 dB 4:09 11-Je ne pense qu'a Г§a
DR7 -0.50 dB -9.07 dB 1:42 12-Je chante pour vous faire marcher
DR7 -0.50 dB -8.47 dB 1:20 13-Je ne suis pas simple
DR5 -0.50 dB -7.28 dB 4:06 14-Si les Г©toiles pouvaient parler
––––––––––––––––––––––––––––––––––––––––

Number of tracks: 14
Official DR value: DR6

Samplerate: 44100 Hz
Channels: 2
Bits per sample: 24
Bitrate: 1546 kbps
Codec: FLAC

All thanks go to the original releaser

Download Evariste - Il Ne Pense Qu'à Ça (1967 - 1970) (2022):