Tags
Language
Tags

Estonian Philharmonic Chamber Choir - Ülo Krigul - Liquid Turns (2022) [Official Digital Download 24/96]

Posted By: pyatak
Estonian Philharmonic Chamber Choir - Ülo Krigul - Liquid Turns (2022) [Official Digital Download 24/96]

Estonian Philharmonic Chamber Choir - Ülo Krigul - Liquid Turns (2022) [Official Digital Download 24/96]
FLAC (tracks) 24-bit/96 kHz | Front Cover | Time - 65:46 minutes | 1,07 GB
Classical | Studio Master, Official Digital Download

Ülo Krigul studied in Tallinn and Vienna, and has written music in a wide variety of genres. Three works presented here – And the Sea Arose, Aga vaata aina üles ("But Look Always Up") and liquid turns – were completed in 2019-2020 when Krigul was composer-in-residence with the Estonian Philharmonic Chamber Choir.

Linked by a common concept and the recycling of musical material, the three form a triptych-like set, here preceded by Vesi ise ("Water Is") from 2015. The latter is the first piece that Krigul wrote for the choir and its conductor Kaspars Putniņš and includes ideas that has been carried over into their later collaboration. If Vesi ise here functions as a prelude, liquid turns is to an extent a summation of the programme: the composer has sampled text and music from the two preceding works and random phrases interact and emerge as a new whole. Krigul has chosen his texts from the New Testament, the writings of the philosopher Uku Masing and the sound poetry of Ilmar Laaban.

TRACKLIST

1. Estonian Philharmonic Chamber Choir - Vesi ise
2. Estonian Philharmonic Chamber Choir - And the Sea Arose
3. Estonian Philharmonic Chamber Choir - No. 1, Hingamisi
4. Estonian Philharmonic Chamber Choir - No. 2, Öö on pime
5. Estonian Philharmonic Chamber Choir - No. 3, Puud aina kasvavad
6. Estonian Philharmonic Chamber Choir - No. 4, Ainuski pilv ei tule tagasi
7. Estonian Philharmonic Chamber Choir - No. 5, Lahkuda onnidest
8. Estonian Philharmonic Chamber Choir - No. 6, Kui vanasti räägiti tuulest
9. Estonian Philharmonic Chamber Choir - Liquid turns

foobar2000 1.6.2 / Dynamic Range Meter 1.1.1
log date: 2022-08-06 16:39:21

––––––––––––––––––––––––––––––––––––––––
Analyzed: Estonian Philharmonic Chamber Choir / Ülo Krigul: Liquid Turns
––––––––––––––––––––––––––––––––––––––––

DR Peak RMS Duration Track
––––––––––––––––––––––––––––––––––––––––
DR13 -4.48 dB -24.25 dB 14:20 01-Vesi ise
DR13 -0.41 dB -20.67 dB 13:53 02-And the Sea Arose
DR14 -10.95 dB -32.47 dB 4:00 03-No. 1, Hingamisi
DR14 -2.89 dB -23.62 dB 4:42 04-No. 2, Öö on pime
DR13 -0.77 dB -21.00 dB 3:04 05-No. 3, Puud aina kasvavad
DR15 -4.75 dB -25.98 dB 3:01 06-No. 4, Ainuski pilv ei tule tagasi
DR13 -0.74 dB -18.39 dB 1:55 07-No. 5, Lahkuda onnidest
DR12 -8.31 dB -27.96 dB 7:33 08-No. 6, Kui vanasti räägiti tuulest
DR17 -0.17 dB -25.21 dB 13:21 09-Liquid turns
––––––––––––––––––––––––––––––––––––––––

Number of tracks: 9
Official DR value: DR14

Samplerate: 96000 Hz
Channels: 2
Bits per sample: 24
Bitrate: 2183 kbps
Codec: FLAC
================================================================================



Thanks to the Original customer.