Tags
Language
Tags
March 2024
Su Mo Tu We Th Fr Sa
25 26 27 28 29 1 2
3 4 5 6 7 8 9
10 11 12 13 14 15 16
17 18 19 20 21 22 23
24 25 26 27 28 29 30
31 1 2 3 4 5 6

Enzo Zirilli - Ten Past Never (2023) [Official Digital Download]

Posted By: pyatak
Enzo Zirilli - Ten Past Never (2023) [Official Digital Download]

Enzo Zirilli - Ten Past Never (2023) [Official Digital Download]
FLAC (tracks) 24-bit/44.1 kHz | Front Cover | Time - 53:47 minutes | 364 MB
Jazz | Studio Master, Official Digital Download

Enzo Zirilli gilt als einer der kreativsten und vielseitigsten Schlagzeuger und Perkussionisten der letzten Generation in der internationalen Welt der zeitgenössischen Musik. Seit 1990, als er begann, als Profi zu arbeiten, hat er in den Bereichen Jazz, Pop und Weltmusik viel mitgewirkt.

Im Jahr 2004 zog Enzo von Italien nach London, wo er sich sofort als einer der gefragtesten Musiker der Londoner Szene etablierte. Er hat mit einer Vielzahl von Künstlern zusammengearbeitet, darunter Dado Moroni, Enrico Pieranunzi, Jim Mullen, George Garzone, Tom Harrell, Bob Mintzer, Ian Shaw, Omar Lye-Fook, Gloria Gaynor, Hamish Stuart, Liane Carroll, Flavio Boltro, Nico Di Battista, James Moody, Gary Bartz, Peter Bernstein, Marco Pereira, Antonio Forcione, Brandon Allen, Tony Kofi, Quentin Collins, Stan Sulzmann, John Etheridge und Jason Rebello.

2013 gründete Enzo seine eigene Band ZiroBop mit den aufstrebenden Gitarristen Rob Luft und Alessandro Chiappetta sowie dem begnadeten Bassisten Misha Mullov-Abbado. Enzo kehrte 2020 nach Italien und Turin (seiner Heimatstadt) zurück, nachdem er zum Professor für Jazz-Schlagzeug und zum Lehrstuhl für Schlagzeug am Konservatorium G. Verdi ernannt wurde. Ten Past Never" wurde im Jahr 2022 in Italien aufgenommen. Dies ist das dritte ZiroBop-Album in der Reihe.

TRACKLIST

1. Enzo Zirilli - Ladies in Mercedes
2. Enzo Zirilli - The Windup
3. Enzo Zirilli - Magnolia
4. Enzo Zirilli - New Lands
5. Enzo Zirilli - Gangway
6. Enzo Zirilli - In Walked Bud
7. Enzo Zirilli - Mooche the Moose
8. Enzo Zirilli - Valzer per Silvia
9. Enzo Zirilli - No Moore Booze
10. Enzo Zirilli - Nun ce sta Piacere
11. Enzo Zirilli - Arun
12. Enzo Zirilli - Total Madness
13. Enzo Zirilli - Remember Rockefeller at Attica

foobar2000 1.6.2 / Dynamic Range Meter 1.1.1
log date: 2023-02-05 19:25:07

––––––––––––––––––––––––––––––––––––––––
Analyzed: Enzo Zirilli / Ten Past Never
––––––––––––––––––––––––––––––––––––––––

DR Peak RMS Duration Track
––––––––––––––––––––––––––––––––––––––––
DR8 -0.10 dB -11.29 dB 5:34 01-Ladies in Mercedes
DR9 -0.10 dB -10.58 dB 4:07 02-The Windup
DR9 -0.12 dB -13.60 dB 6:11 03-Magnolia
DR10 -0.10 dB -12.00 dB 4:56 04-New Lands
DR8 -0.10 dB -10.85 dB 4:43 05-Gangway
DR9 -0.10 dB -11.80 dB 3:04 06-In Walked Bud
DR10 -0.10 dB -12.85 dB 0:36 07-Mooche the Moose
DR10 -0.10 dB -12.76 dB 4:26 08-Valzer per Silvia
DR7 -0.10 dB -9.63 dB 6:13 09-No Moore Booze
DR10 -0.10 dB -13.12 dB 3:41 10-Nun ce sta Piacere
DR10 -0.10 dB -12.83 dB 5:29 11-Arun
DR9 -0.10 dB -11.62 dB 2:52 12-Total Madness
DR10 -0.10 dB -13.18 dB 2:05 13-Remember Rockefeller at Attica
––––––––––––––––––––––––––––––––––––––––

Number of tracks: 13
Official DR value: DR9

Samplerate: 44100 Hz
Channels: 2
Bits per sample: 24
Bitrate: 711 kbps
Codec: FLAC
================================================================================



Thanks to the Original customer.