Tags
Language
Tags

Damien O'Kane & Ron Block - Banjophonics (2022) [Official Digital Download]

Posted By: ciklon5
Damien O'Kane & Ron Block - Banjophonics (2022) [Official Digital Download]

Damien O'Kane & Ron Block - Banjophonics (2022) [Official Digital Download]
FLAC (tracks), Lossless [24bit-96kHz] +Booklet | 54:53 | 1.04 Gb
Genre: Folk, Bluegrass, Country / Label: Pure Records

Banjophobics look away now lest your delicate sensibilities be offended. Me, I like the sound of the banjo as much as the next man but I’m used to hearing it in certain contexts: bluegrass, complex Irish tunes, Appalachian songs and the diffuse genre of country/blues/folk/rock. With Banjophonics Damien O’Kane and Ron Block treat the banjo as any other musical instrument and apply it to all manner of tunes. The majority of the eighteen compositions here are written by Damien and Ron with a few borrowings. As well as banjos they play guitars – tenor and regular – and are supported by Steven Byrnes, Duncan Lyall and Josh Clark on some sessions and Sierra Hull, Barry Bales and Jay Bellerose on others. Plus guest appearances from Michael McGoldrick and Kate Rusby.

Track List:
1. The Taxi Driver / Close Enough (6:14)
2. Happy Chance / Marnie's Melody (4:48)
3. Daisy's Dance (4:25)
4. Happy Little Phoebe / Manny Mountain (4:47)
5. Bide the Night (4:23)
6. The Fiddler's Gun (3:35)
7. Endless Wanderer (3:28)
8. Happy Sevens / Monster Rabbit (4:42)
9. Whirlwind (4:00)
10. EDB & Lady Grey (3:51)
11. Woman of No Place (3:18)
12. Soundcheck Sonics / Andy Brown's (3:42)
13. The Thrify Wife (3:49)

foobar2000 1.6.10 / Dynamic Range Meter 1.1.1
log date: 2022-06-29 06:59:36

––––––––––––––––––––––––––––––––––––––––
Analyzed: Damien O'Kane and Ron Block / Banjophonics
––––––––––––––––––––––––––––––––––––––––

DR Peak RMS Duration Track
––––––––––––––––––––––––––––––––––––––––
DR9 -1.19 dB -13.04 dB 6:14 01-The Taxi Driver / Close Enough
DR7 -1.21 dB -10.00 dB 4:48 02-Happy Chance / Marnie's Melody
DR7 -1.16 dB -12.06 dB 4:25 03-Daisy's Dance
DR6 -1.20 dB -10.54 dB 4:47 04-Happy Little Phoebe / Manny Mountain
DR10 -1.19 dB -14.79 dB 4:23 05-Bide the Night
DR9 -1.19 dB -12.13 dB 3:35 06-The Fiddler's Gun
DR8 -1.20 dB -11.60 dB 3:28 07-Endless Wanderer
DR7 -1.21 dB -10.46 dB 4:42 08-Happy Sevens / Monster Rabbit
DR7 -1.21 dB -10.03 dB 4:00 09-Whirlwind
DR9 -1.20 dB -12.80 dB 3:51 10-EDB & Lady Grey
DR7 -1.20 dB -10.73 dB 3:18 11-Woman of No Place
DR8 -1.21 dB -10.96 dB 3:42 12-Soundcheck Sonics / Andy Brown's
DR9 -1.19 dB -12.05 dB 3:49 13-The Thrify Wife
––––––––––––––––––––––––––––––––––––––––

Number of tracks: 13
Official DR value: DR8

Samplerate: 96000 Hz
Channels: 2
Bits per sample: 24
Bitrate: 2736 kbps
Codec: FLAC
================================================================================