Subcategories

Christian Zacharias - W.A. Mozart Piano Concertos Vol.4 (2009) [SACD-R][OF]

Posted By: Discograf_man
Christian Zacharias - W.A. Mozart Piano Concertos Vol.4 (2009) [SACD-R][OF]

Christian Zacharias - W.A. Mozart Piano Concertos Vol.4 (2009) [SACD-R][OF]
Classical, Piano, Orchestral | SACD ISO: DST64 2.0, 5.1 > 1-bit/2.8224 MHz | Artwork | 3.13 GB
Label: MDG | Release Year: 2009

This volume in the series seems to have taken a step up, with playing which previously might have been a little cosy now edgier & with more contrast in light & shade. The overall ensemble is excellent, & these are very good Mozart concerto interpretations indeed. Sound quality is up to MDG’s usual high standard, with a well-scaled ambience in Mch, & the 2+2+2 channel setup with height channels works fine in my 5.1 setup, despite my not reassigning the centre & sub speaker.
Tracklist:
Concerto for Piano and Orchestra KV 459 in F major
1. Allegro
2. Allegretto
3. Allegro assai
Concerto for Piano and Orchestra KV 466 in d minor
4. Allegro
5. Romance
6. Allegro assai

Christian Zacharias - W.A. Mozart Piano Concertos Vol.4 (2009) [SACD-R][OF]

17432772[0x10a00c4]: SACD-Ripper Version 0.36
17432772[0x10a00c4]: config: 00 00 00 0c 00 00 00 00 ff 41 00 04 00 00 00 00
17432772[0x10a00c4]: config: 00 00 00 00 00 00 00 00 00 00 00 00 00 00 00 00
17432772[0x10a00c4]: config: 00 00 00 00 00 00 00 00 00 00 00 00 00 00 00 00
17432772[0x10a00c4]: config: 00 00 00 00 00 00 00 00 00 00 00 00 00 00 00 00
17432772[0x10a00c4]: device_info: 75 6e 6e 61 6d 65 5c 10 80 00 00 00 00 53 a0 00
17432772[0x10a00c4]: device_info: 80 00 00 00 10 13 de 70 80 00 00 00 00 55 50 00
17432772[0x10a00c4]: device_info: 00 00 00 00 00 00 00 00 00 00 00 00 00 18 37 b0
17432772[0x10a00c4]: device_info: 00 00 08 00 00 00 00 01 00 01 01 00 00 00 00 01
17432772[0x10a00c4]: disc inserted..
17432772[0x10a00c4]: config: 00 00 00 0c 00 00 00 10 ff 41 01 04 00 00 00 00
17432772[0x10a00c4]: config: 00 00 00 00 00 00 00 00 00 00 00 00 00 00 00 00
17432772[0x10a00c4]: config: 00 00 00 00 00 00 00 00 00 00 00 00 00 00 00 00
17432772[0x10a00c4]: config: 00 00 00 00 00 00 00 00 00 00 00 00 00 00 00 00
17432772[0x10a00c4]: device_info: 75 6e 6e 61 6d 65 5c 10 80 00 00 00 00 53 a0 00
17432772[0x10a00c4]: device_info: 80 00 00 00 10 13 de 70 80 00 00 00 00 55 50 00
17432772[0x10a00c4]: device_info: 00 00 00 00 00 00 00 00 00 00 00 00 00 17 f2 20
17432772[0x10a00c4]: device_info: 00 00 08 00 00 00 00 01 00 01 01 00 00 00 00 01
17432772[0x10a00c4]: Album Title: Wolfgang Amadeus Mozart: Concertos for Piano and O
17432772[0x10a00c4]: Album Artist: Christian Zacharias, Orchestre de Chambre de Lausa
17432772[0x10a00c4]: Disc Version: 01.20
17432772[0x10a00c4]: config: 00 00 00 0c 00 00 00 10 ff 41 01 04 00 00 00 00
17432772[0x10a00c4]: config: 00 00 00 00 00 00 00 00 00 00 00 00 00 00 00 00
17432772[0x10a00c4]: config: 00 00 00 00 00 00 00 00 00 00 00 00 00 00 00 00
17432772[0x10a00c4]: config: 00 00 00 00 00 00 00 00 00 00 00 00 00 00 00 00
17432772[0x10a00c4]: device_info: 75 6e 6e 61 6d 65 5c 10 80 00 00 00 00 53 a0 00
17432772[0x10a00c4]: device_info: 80 00 00 00 10 13 de 70 80 00 00 00 00 55 50 00
17432772[0x10a00c4]: device_info: 00 00 00 00 00 00 00 00 00 00 00 00 00 17 f2 20
17432772[0x10a00c4]: device_info: 00 00 08 00 00 00 00 01 00 01 01 00 00 00 00 01
17432772[0x10a00c4]: succeeded. raw_spu number is 0
17432772[0x10a00c4]: succeeded. entry d0
17432772[0x10a00c4]: Establishing the interrupt tag on the interrupt PPU thread.
17432772[0x10a00c4]: ioctl_report_key1[45023901] 0
17432772[0x10a00c4]: sac_exec_generate_key 0 c9 0
17432772[0x10a00c4]: ioctl_send_key[2] c9 0
17432772[0x10a00c4]: ioctl_report_key[2] c8 0
17432772[0x10a00c4]: sac_exec_validate_key_1[0]
17432772[0x10a00c4]: sac_exec_generate_key_2[ae] 0
17432772[0x10a00c4]: ioctl_send_key[3] ae 0
17432772[0x10a00c4]: ioctl_report_key[3] b0 0
17432772[0x10a00c4]: sac_exec_validate_key_2[0]
17432772[0x10a00c4]: ioctl_report_key[4] 30 0
17432772[0x10a00c4]: sac_exec_validate_key_3[0]
17432772[0x10a00c4]: ioctl_report_finish [0xff] 0
17432772[0x10a00c4]: Queuing raw: /dev_usb003/Christian Zacharias, Orchestre de Chambre de Lausanne - Wolfgang Amadeus Mozart Concertos for Piano and Orchestra.iso, start_lsn: 0, length_lsn: 1569312

foobar2000 1.3.13 / Замер динамического диапазона (DR) 1.1.1
Дата отчёта: 2017-01-10 22:57:37

––––––––––––––––––––––––––––––––––––––––
Анализ: Christian Zacharias, Orchestre de Chambre de Lausanne / Wolfgang Amadeus Mozart: Concertos for Piano and Orchestra Vol. 4
––––––––––––––––––––––––––––––––––––––––

DR Пики RMS Продолжительность трека
––––––––––––––––––––––––––––––––––––––––
DR14 -9.83 дБ -32.28 дБ 12:02 01-Concerto for Piano and Orchestra KV 459 in F major - Allegro
DR15 -11.65 дБ -34.62 дБ 7:34 02-Concerto for Piano and Orchestra KV 459 in F major - Allegretto
DR14 -9.70 дБ -32.27 дБ 8:00 03-Concerto for Piano and Orchestra KV 459 in F major - Allegro assai
DR14 -7.20 дБ -30.91 дБ 13:23 04-Concerto for Piano and Orchestra KV 466 in d minor - Allegro
DR15 -8.39 дБ -31.87 дБ 8:24 05-Concerto for Piano and Orchestra KV 466 in d minor - Romance
DR15 -6.12 дБ -29.95 дБ 7:53 06-Concerto for Piano and Orchestra KV 466 in d minor - Allegro assai
––––––––––––––––––––––––––––––––––––––––

Количество треков: 6
Реальные значения DR: DR15

Частота: 2822400 Гц / Частота PCM: 44100 Гц
Каналов: 6
Разрядность: 24
Битрейт: 16934 кбит/с
Кодек: DST64
================================================================================

––––––––––––––––––––––––––––––––––––––––
Анализ: Christian Zacharias, Orchestre de Chambre de Lausanne / Wolfgang Amadeus Mozart: Concertos for Piano and Orchestra Vol. 4
––––––––––––––––––––––––––––––––––––––––

DR Пики RMS Продолжительность трека
––––––––––––––––––––––––––––––––––––––––
DR14 -9.83 дБ -29.41 дБ 12:02 01-Concerto for Piano and Orchestra KV 459 in F major - Allegro
DR15 -11.65 дБ -31.88 дБ 7:34 02-Concerto for Piano and Orchestra KV 459 in F major - Allegretto
DR14 -9.70 дБ -29.38 дБ 8:00 03-Concerto for Piano and Orchestra KV 459 in F major - Allegro assai
DR15 -7.20 дБ -27.97 дБ 13:23 04-Concerto for Piano and Orchestra KV 466 in d minor - Allegro
DR16 -8.39 дБ -28.93 дБ 8:24 05-Concerto for Piano and Orchestra KV 466 in d minor - Romance
DR15 -6.12 дБ -27.14 дБ 7:53 06-Concerto for Piano and Orchestra KV 466 in d minor - Allegro assai
––––––––––––––––––––––––––––––––––––––––

Количество треков: 6
Реальные значения DR: DR15

Частота: 2822400 Гц / Частота PCM: 44100 Гц
Каналов: 2
Разрядность: 24
Битрейт: 5645 кбит/с
Кодек: DST64
================================================================================

Thanks to the original customer