Tags
Language
Tags
October 2022
Su Mo Tu We Th Fr Sa
25 26 27 28 29 30 1
2 3 4 5 6 7 8
9 10 11 12 13 14 15
16 17 18 19 20 21 22
23 24 25 26 27 28 29
30 31 1 2 3 4 5

Christian Lindberg, Franz Schubert - Best of Schubert Vol. 2 (2022) [Official Digital Download]

Posted By: pyatak
Christian Lindberg, Franz Schubert - Best of Schubert Vol. 2 (2022) [Official Digital Download]

Christian Lindberg, Franz Schubert - Best of Schubert Vol. 2 (2022) [Official Digital Download]
FLAC (tracks) 24-bit/44.1 kHz | Front Cover | Time - 18:54 minutes | 148 MB
Classical | Studio Master, Official Digital Download

Franz Peter Schubert (* 31. Jänner 1797 in der Gemeinde Himmelpfortgrund, heute im 9. Bezirk Wiens; † 19. November 1828 in Wieden, jetzt 4. Bezirk) war ein österreichischer Komponist.

Obwohl Franz Schubert schon im Alter von 31 Jahren starb, hinterließ er ein reiches und vielfältiges Werk. Er komponierte über 600 Lieder, weltliche und geistliche Chormusik, sieben vollständige und fünf unvollendete Sinfonien, Ouvertüren, Bühnenwerke, Klaviermusik und Kammermusik.

Zu seinen Lebzeiten war die Zahl seiner Bewunderer noch begrenzt. Mendelssohn, Schumann, Liszt, Brahms und andere Komponisten der Romantik entdeckten und rühmten das Werk ihres Vorgängers. Heute ist Schuberts Rang als herausragender Vertreter der frühen Romantik unbestritten.

TRACKLIST

1. Christian Lindberg - Overture in Italian Style, D.591. I
2. Christian Lindberg - Overture in Italian Style, D.591. II
3. Christian Lindberg - Overture in Italian Style, D.591. III
4. Christian Lindberg - Overture in Italian Style, D.591. IV
5. Christian Lindberg - Overture in Italian Style, D.591. V
6. Christian Lindberg - Overture in Italian Style, D.591. VI
7. Christian Lindberg - Overture in Italian Style, D.591. VII
8. Franz Schubert - Schubert: Frühlingsglaube (Arr. for trombone and piano) I
9. Franz Schubert - Schubert: Frühlingsglaube (Arr. for trombone and piano) II
10. Franz Schubert - Schubert: Frühlingsglaube (Arr. for trombone and piano) III
11. Franz Schubert - Schubert: Ständchen (Arr. for trombone and piano) I
12. Franz Schubert - Schubert: Ständchen (Arr. for trombone and piano) II
13. Franz Schubert - Schubert: Ständchen (Arr. for trombone and piano) III
14. Franz Schubert - Schubert: Die Forelle (Arr. for trombone and piano) I
15. Franz Schubert - Schubert: Die Forelle (Arr. for trombone and piano) II
16. Franz Schubert - Schubert: Die Böse Farbe (Arr. for trombone and piano) I
17. Franz Schubert - Schubert: Die Böse Farbe (Arr. for trombone and piano) II

foobar2000 1.6.2 / Dynamic Range Meter 1.1.1
log date: 2022-08-16 20:57:30

––––––––––––––––––––––––––––––––––––––––
Analyzed: Christian Lindberg / Best of Schubert Vol. 2
––––––––––––––––––––––––––––––––––––––––

DR Peak RMS Duration Track
––––––––––––––––––––––––––––––––––––––––
DR14 -0.30 dB -19.22 dB 1:03 01-Overture in Italian Style, D.591. I
DR13 -3.57 dB -22.19 dB 1:20 02-Overture in Italian Style, D.591. II
DR12 -0.37 dB -18.08 dB 0:56 03-Overture in Italian Style, D.591. III
DR11 -0.30 dB -17.88 dB 1:00 04-Overture in Italian Style, D.591. IV
DR12 -0.30 dB -16.86 dB 1:08 05-Overture in Italian Style, D.591. V
DR12 -0.30 dB -16.53 dB 1:02 06-Overture in Italian Style, D.591. VI
DR11 -0.30 dB -13.54 dB 1:01 07-Overture in Italian Style, D.591. VII
––––––––––––––––––––––––––––––––––––––––

Number of tracks: 7
Official DR value: DR12

Samplerate: 44100 Hz
Channels: 2
Bits per sample: 24
Bitrate: 1397 kbps
Codec: FLAC
================================================================================

––––––––––––––––––––––––––––––––––––––––
Analyzed: Franz Schubert / Best of Schubert Vol. 2
––––––––––––––––––––––––––––––––––––––––

DR Peak RMS Duration Track
––––––––––––––––––––––––––––––––––––––––
DR10 -4.85 dB -20.70 dB 1:04 08-Schubert: Frühlingsglaube (Arr. for trombone and piano) I
DR10 -5.84 dB -19.14 dB 1:07 09-Schubert: Frühlingsglaube (Arr. for trombone and piano) II
DR10 -5.34 dB -21.86 dB 1:00 10-Schubert: Frühlingsglaube (Arr. for trombone and piano) III
DR10 -4.78 dB -20.68 dB 1:16 11-Schubert: Ständchen (Arr. for trombone and piano) I
DR11 -4.77 dB -21.79 dB 1:09 12-Schubert: Ständchen (Arr. for trombone and piano) II
DR10 -0.26 dB -17.53 dB 1:21 13-Schubert: Ständchen (Arr. for trombone and piano) III
DR12 -4.61 dB -19.42 dB 1:05 14-Schubert: Die Forelle (Arr. for trombone and piano) I
DR12 -2.89 dB -20.09 dB 1:03 15-Schubert: Die Forelle (Arr. for trombone and piano) II
DR11 0.00 dB -15.11 dB 1:18 16-Schubert: Die Böse Farbe (Arr. for trombone and piano) I
DR10 -0.60 dB -15.65 dB 1:02 17-Schubert: Die Böse Farbe (Arr. for trombone and piano) II
––––––––––––––––––––––––––––––––––––––––

Number of tracks: 10
Official DR value: DR11

Samplerate: 48000 Hz
Channels: 2
Bits per sample: 24
Bitrate: 380 kbps
Codec: FLAC
================================================================================



Thanks to the Original customer.