Tags
Language
Tags
October 2022
Su Mo Tu We Th Fr Sa
25 26 27 28 29 30 1
2 3 4 5 6 7 8
9 10 11 12 13 14 15
16 17 18 19 20 21 22
23 24 25 26 27 28 29
30 31 1 2 3 4 5

Christian Lindberg, Franz Schubert - Best of Schubert Vol. 1 (2022) [Official Digital Download]

Posted By: pyatak
Christian Lindberg, Franz Schubert - Best of Schubert Vol. 1 (2022) [Official Digital Download]

Christian Lindberg, Franz Schubert - Best of Schubert Vol. 1 (2022) [Official Digital Download]
FLAC (tracks) 24-bit/44.1 kHz | Front Cover | Time - 36:02 minutes | 194 MB
Classical | Studio Master, Official Digital Download

Franz Peter Schubert (* 31. Jänner 1797 in der Gemeinde Himmelpfortgrund, heute im 9. Bezirk Wiens; † 19. November 1828 in Wieden, jetzt 4. Bezirk) war ein österreichischer Komponist.

Obwohl Franz Schubert schon im Alter von 31 Jahren starb, hinterließ er ein reiches und vielfältiges Werk. Er komponierte über 600 Lieder, weltliche und geistliche Chormusik, sieben vollständige und fünf unvollendete Sinfonien, Ouvertüren, Bühnenwerke, Klaviermusik und Kammermusik.

Zu seinen Lebzeiten war die Zahl seiner Bewunderer noch begrenzt. Mendelssohn, Schumann, Liszt, Brahms und andere Komponisten der Romantik entdeckten und rühmten das Werk ihres Vorgängers. Heute ist Schuberts Rang als herausragender Vertreter der frühen Romantik unbestritten.

TRACKLIST

1. Franz Schubert - Moment Musical No. 1 C Major, D.780 (op.94) I
2. Franz Schubert - Moment Musical No. 1 C Major, D.780 (op.94) II
3. Franz Schubert - Moment Musical No. 1 C Major, D.780 (op.94) III
4. Franz Schubert - Moment Musical No. 1 C Major, D.780 (op.94) IV
5. Franz Schubert - Moment Musical No. 1 C Major, D.780 (op.94) V
6. Franz Schubert - Moment Musical No. 1 C Major, D.780 (op.94) VI
7. Christian Lindberg - Schubert: Symphony no. 5: Allegro I
8. Christian Lindberg - Schubert: Symphony no. 5: Allegro II
9. Christian Lindberg - Schubert: Symphony no. 5: Allegro III
10. Christian Lindberg - Schubert: Symphony no. 5: Allegro IV
11. Christian Lindberg - Schubert: Symphony no. 5: Allegro V
12. Christian Lindberg - Schubert: Symphony no. 5: Allegro VI
13. Christian Lindberg - Schubert: Symphony no. 5: Allegro VII
14. Christian Lindberg - Schubert: Symphony no. 5: Andante con Moto I
15. Christian Lindberg - Schubert: Symphony no. 5: Andante con Moto II
16. Christian Lindberg - Schubert: Symphony no. 5: Andante con Moto III
17. Christian Lindberg - Schubert: Symphony no. 5: Andante con Moto IV
18. Christian Lindberg - Schubert: Symphony no. 5: Andante con Moto V
19. Christian Lindberg - Schubert: Symphony no. 5: Andante con Moto VI
20. Christian Lindberg - Schubert: Symphony no. 5: Andante con Moto VII
21. Christian Lindberg - Schubert: Symphony no. 5: Andante con Moto VIII
22. Christian Lindberg - Schubert: Symphony no. 5: Andante con Moto IX
23. Christian Lindberg - Schubert: Symphony no. 5: Andante con Moto X
24. Christian Lindberg - Schubert: Symphony no. 5: Menuetto I
25. Christian Lindberg - Schubert: Symphony no. 5: Menuetto II
26. Christian Lindberg - Schubert: Symphony no. 5: Menuetto III
27. Christian Lindberg - Schubert: Symphony no. 5: Menuetto IV
28. Christian Lindberg - Schubert: Symphony no. 5: Menuetto V
29. Christian Lindberg - Schubert: Symphony no. 5: Allegro Vivace I
30. Christian Lindberg - Schubert: Symphony no. 5: Allegro Vivace II
31. Christian Lindberg - Schubert: Symphony no. 5: Allegro Vivace III
32. Christian Lindberg - Schubert: Symphony no. 5: Allegro Vivace IV
33. Christian Lindberg - Schubert: Symphony no. 5: Allegro Vivace V
34. Christian Lindberg - Schubert: Symphony no. 5: Allegro Vivace VI
35. Christian Lindberg - Schubert: Symphony no. 5: Allegro Vivace VII
36. Christian Lindberg - Schubert: Symphony no. 5: Allegro Vivace VIII

foobar2000 1.6.2 / Dynamic Range Meter 1.1.1
log date: 2022-08-16 20:52:49

––––––––––––––––––––––––––––––––––––––––
Analyzed: Christian Lindberg / Best of Schubert Vol. 1 (1-30)
Franz Schubert / Best of Schubert Vol. 1 (31-36)
––––––––––––––––––––––––––––––––––––––––

DR Peak RMS Duration Track
––––––––––––––––––––––––––––––––––––––––
DR11 -5.57 dB -21.77 dB 1:02 07-Schubert: Symphony no. 5: Allegro I
DR11 -4.19 dB -19.60 dB 0:53 08-Schubert: Symphony no. 5: Allegro II
DR10 -5.42 dB -21.42 dB 1:03 09-Schubert: Symphony no. 5: Allegro III
DR10 -5.04 dB -20.82 dB 0:53 10-Schubert: Symphony no. 5: Allegro IV
DR12 -5.46 dB -23.13 dB 0:58 11-Schubert: Symphony no. 5: Allegro V
DR10 -5.70 dB -21.40 dB 0:55 12-Schubert: Symphony no. 5: Allegro VI
DR11 -3.68 dB -19.85 dB 1:14 13-Schubert: Symphony no. 5: Allegro VII
DR11 -1.89 dB -17.89 dB 1:37 14-Schubert: Symphony no. 5: Andante con Moto I
DR10 -2.13 dB -17.15 dB 1:03 15-Schubert: Symphony no. 5: Andante con Moto II
DR7 -2.54 dB -22.51 dB 0:40 16-Schubert: Symphony no. 5: Andante con Moto III
DR11 -1.50 dB -17.53 dB 1:02 17-Schubert: Symphony no. 5: Andante con Moto IV
DR12 -3.24 dB -21.29 dB 1:04 18-Schubert: Symphony no. 5: Andante con Moto V
DR11 -3.06 dB -19.73 dB 1:36 19-Schubert: Symphony no. 5: Andante con Moto VI
DR11 -9.90 dB -27.80 dB 1:06 20-Schubert: Symphony no. 5: Andante con Moto VII
DR10 -6.69 dB -20.90 dB 0:58 21-Schubert: Symphony no. 5: Andante con Moto VIII
DR9 -9.69 dB -22.21 dB 0:42 22-Schubert: Symphony no. 5: Andante con Moto IX
DR9 -10.77 dB -25.15 dB 0:45 23-Schubert: Symphony no. 5: Andante con Moto X
DR12 -0.50 dB -16.51 dB 1:09 24-Schubert: Symphony no. 5: Menuetto I
DR11 -0.50 dB -15.01 dB 1:20 25-Schubert: Symphony no. 5: Menuetto II
DR11 -3.76 dB -20.16 dB 0:55 26-Schubert: Symphony no. 5: Menuetto III
DR11 -2.53 dB -19.17 dB 0:49 27-Schubert: Symphony no. 5: Menuetto IV
DR10 -1.55 dB -18.06 dB 0:54 28-Schubert: Symphony no. 5: Menuetto V
DR11 -0.97 dB -17.86 dB 0:57 29-Schubert: Symphony no. 5: Allegro Vivace I
DR10 -1.50 dB -15.91 dB 0:52 30-Schubert: Symphony no. 5: Allegro Vivace II
DR11 -0.97 dB -16.47 dB 0:32 31-Schubert: Symphony no. 5: Allegro Vivace III
DR11 -0.50 dB -15.77 dB 1:01 32-Schubert: Symphony no. 5: Allegro Vivace IV
DR12 -0.50 dB -17.98 dB 0:57 33-Schubert: Symphony no. 5: Allegro Vivace V
DR11 -1.74 dB -18.88 dB 1:10 34-Schubert: Symphony no. 5: Allegro Vivace VI
DR11 -0.50 dB -14.93 dB 1:04 35-Schubert: Symphony no. 5: Allegro Vivace VII
DR12 -0.50 dB -16.84 dB 1:10 36-Schubert: Symphony no. 5: Allegro Vivace VIII
DR11 -0.31 dB -17.17 dB 1:01 01-Moment Musical No. 1 C Major, D.780 (op.94) I
DR11 -0.30 dB -17.51 dB 1:09 02-Moment Musical No. 1 C Major, D.780 (op.94) II
DR11 -1.61 dB -18.02 dB 0:54 03-Moment Musical No. 1 C Major, D.780 (op.94) III
DR12 -0.30 dB -17.09 dB 1:09 04-Moment Musical No. 1 C Major, D.780 (op.94) IV
DR10 -1.23 dB -19.17 dB 0:52 05-Moment Musical No. 1 C Major, D.780 (op.94) V
DR10 -0.30 dB -17.51 dB 0:53 06-Moment Musical No. 1 C Major, D.780 (op.94) VI
––––––––––––––––––––––––––––––––––––––––

Number of tracks: 36
Official DR value: DR11

Samplerate: 44100 Hz
Channels: 2
Bits per sample: 24
Bitrate: 983 kbps
Codec: FLAC
================================================================================



Thanks to the Original customer.