Tags
Language
Tags
March 2024
Su Mo Tu We Th Fr Sa
25 26 27 28 29 1 2
3 4 5 6 7 8 9
10 11 12 13 14 15 16
17 18 19 20 21 22 23
24 25 26 27 28 29 30
31 1 2 3 4 5 6

Benny Sings - Champagne People (20th Anniversary Edition) (2023) [Official Digital Download]

Posted By: pyatak
Benny Sings - Champagne People (20th Anniversary Edition) (2023) [Official Digital Download]

Benny Sings - Champagne People (20th Anniversary Edition) (2023) [Official Digital Download]
FLAC (tracks) 24-bit/44.1 kHz | Front Cover | Time - 57:12 minutes | 629 MB
Indie Pop, Soul | Studio Master, Official Digital Download

20th anniversary of Benny's debut album 'Champagne People'. This re-release not only pays homage to the past but also adds a touch of the present with two previously unreleased bonus tracks on vinyl & digital + three additional reworks on the digital album only.

TRACKLIST

1.Twist You Around.Party
3.Unconditional Love
4.N.U.
5.Melissa Davis
6.We Ain't Going Nowhere
7.Together
8.Style Beats Liberation Fronts
9.Dust
10.Champagne People
11.Miss You More Than I Thought
12.No!
13.Champagne People feat Allen Stone (2023 Rework)
14. Party feat Mocky (2023 Rework)
15. Party feat Marnix FJ (2023 Rework)

foobar2000 1.6.2 / Dynamic Range Meter 1.1.1
log date: 2023-11-30 14:02:55

––––––––––––––––––––––––––––––––––––––––
Analyzed: Benny Sings / Champagne People (20th Anniversary Edition)
––––––––––––––––––––––––––––––––––––––––

DR Peak RMS Duration Track
––––––––––––––––––––––––––––––––––––––––
DR9 -0.99 dB -11.90 dB 4:19 01-Twist You Around
DR9 -0.98 dB -11.03 dB 4:24 02-Party
DR9 -1.00 dB -11.32 dB 4:35 03-Unconditional Love
DR9 -0.98 dB -11.14 dB 3:56 04-N.U.
DR10 -0.95 dB -13.47 dB 4:33 05-Melissa Davis
DR10 -1.00 dB -11.78 dB 3:48 06-We Ain't Going Nowhere
DR9 -0.97 dB -12.31 dB 4:19 07-Together
DR9 -0.97 dB -11.51 dB 3:15 08-Style Beats Liberation Fronts
DR8 -0.98 dB -10.17 dB 3:07 09-Dust
DR9 -0.96 dB -11.77 dB 3:57 10-Champagne People
DR8 -1.00 dB -11.32 dB 2:30 11-Miss You More Than I Thought
DR9 -0.98 dB -11.29 dB 3:17 12-No!
DR9 -0.89 dB -10.87 dB 4:22 13-Champagne People (Allen Stone 2023 Rework)
DR7 -0.82 dB -8.94 dB 4:14 14-Party (Mocky 2023 Rework)
DR8 -0.94 dB -11.19 dB 2:43 15-Party (Marnix FJ 2023 Rework)
––––––––––––––––––––––––––––––––––––––––

Number of tracks: 15
Official DR value: DR9

Samplerate: 44100 Hz
Channels: 2
Bits per sample: 24
Bitrate: 1478 kbps
Codec: FLAC
================================================================================



Thanks to the Original customer.