Tags
Language
Tags
September 2022
Su Mo Tu We Th Fr Sa
28 29 30 31 1 2 3
4 5 6 7 8 9 10
11 12 13 14 15 16 17
18 19 20 21 22 23 24
25 26 27 28 29 30 1

Ben Goldberg - Ben Goldberg School, Vol. 2: Hard Science (2022) [Official Digital Download]

Posted By: ciklon5
Ben Goldberg - Ben Goldberg School, Vol. 2: Hard Science (2022) [Official Digital Download]

Ben Goldberg - Ben Goldberg School, Vol. 2: Hard Science (2022) [Official Digital Download]
FLAC (tracks), Lossless [24bit-48kHz] | 54:05 | 608 Mb
Genre: Jazz / Label: BAG Production Records

Hard Science is the second record by Ben Goldberg School. (The first album is called Vol 1: The Humanities). It was recorded in July 2021, with a particular strategy: I didn't teach the music to the group, or rehearse. Instead i sent around a few of the more complicated passages ahead of time, then in the studio I just started playing each song and let the musicians grab on as they saw fit. My inspiration was the thought that, if I put written music in front of a musician, I am relying on their reading ability. This way, on the other hand, I am relying on their humanity in the moment. Most of the songs on the record are first takes although you can hear that for a few of these tracks we went over the song more than once so people could get the hang of it.After this recording was made, I continued playing the material in solo concerts and with a trio of myself, Liberty Ellman, and Gerald Cleaver. I began calling the collection of tunes "Porch Concert Material." That is why the titles of these songs are called PCM.

Track List:
1. PCM 1 (3:14)
2. PCM 9 (2:05)
3. PCM 11 (4:06)
4. PCM 15 (2:48)
5. PCM 6 (6:44)
6. PCM 3 (4:32)
7. PCM 5 (4:39)
8. PCM 12 (3:20)
9. PCM 20 (2:39)
10. PCM 7 (5:40)
11. PCM 19 (4:16)
12. PCM 22 (1:04)
13. PCM 10 (4:53)
14. PCM 21 (2:56)
15. PCM 2 (1:19)

foobar2000 1.6.10 / Dynamic Range Meter 1.1.1
log date: 2022-08-05 13:36:13

––––––––––––––––––––––––––––––––––––––––
Analyzed: Ben Goldberg / Ben Goldberg School, Vol. 2: Hard Science
––––––––––––––––––––––––––––––––––––––––

DR Peak RMS Duration Track
––––––––––––––––––––––––––––––––––––––––
DR9 -1.00 dB -11.60 dB 3:14 01-PCM 1
DR10 -1.00 dB -12.84 dB 2:05 02-PCM 9
DR10 -1.00 dB -12.08 dB 4:06 03-PCM 11
DR10 -1.00 dB -13.29 dB 2:48 04-PCM 15
DR9 -1.00 dB -13.50 dB 6:44 05-PCM 6
DR9 -1.00 dB -12.68 dB 4:32 06-PCM 3
DR11 -1.00 dB -15.48 dB 4:39 07-PCM 5
DR11 -1.00 dB -13.88 dB 3:20 08-PCM 12
DR11 -1.00 dB -13.95 dB 2:39 09-PCM 20
DR9 -1.00 dB -12.42 dB 5:40 10-PCM 7
DR9 -1.00 dB -12.38 dB 4:16 11-PCM 19
DR9 -1.00 dB -12.43 dB 1:04 12-PCM 22
DR10 -1.00 dB -13.59 dB 4:53 13-PCM 10
DR10 -1.00 dB -14.31 dB 2:56 14-PCM 21
DR11 -1.00 dB -14.13 dB 1:19 15-PCM 2
––––––––––––––––––––––––––––––––––––––––

Number of tracks: 15
Official DR value: DR10

Samplerate: 48000 Hz
Channels: 2
Bits per sample: 24
Bitrate: 1602 kbps
Codec: FLAC
================================================================================