Tags
Language
Tags
December 2022
Su Mo Tu We Th Fr Sa
27 28 29 30 1 2 3
4 5 6 7 8 9 10
11 12 13 14 15 16 17
18 19 20 21 22 23 24
25 26 27 28 29 30 31

Avril Lavigne - Love Sux (Deluxe) (2022) [Official Digital Download]

Posted By: pyatak
Avril Lavigne - Love Sux (Deluxe) (2022) [Official Digital Download]

Avril Lavigne - Love Sux (Deluxe) (2022) [Official Digital Download]
FLAC (tracks) 24-bit/48 kHz | Front Cover | Time - 49:11 minutes | 652 MB
Pop | Studio Master, Official Digital Download

Avril announced on her Instagram story Q&A that Love Sux will be getting a deluxe version with additional songs, and that she would start going to the studio the following week.

Avril Lavigne told Kyle Meredith With… that Love Sux was originally meant to be a double album. She wrote over thirty songs before cutting it down to twelve.

TRACKLIST

1. Avril Lavigne - Cannonball
2. Avril Lavigne - Bois Lie (feat. Machine Gun Kelly)
3. Avril Lavigne - Bite Me
4. Avril Lavigne - Love It When You Hate Me (feat. blackbear)
5. Avril Lavigne - Love Sux
6. Avril Lavigne - Kiss Me Like The World Is Ending
7. Avril Lavigne - Avalanche
8. Avril Lavigne - Déjà vu
9. Avril Lavigne - F.U.
10. Avril Lavigne - All I Wanted (feat. Mark Hoppus)
11. Avril Lavigne - Dare To Love Me
12. Avril Lavigne - Break Of A Heartache
13. Avril Lavigne - I’m a Mess (with YUNGBLUD)
14. Avril Lavigne - Mercury In Retrograde
15. Avril Lavigne - Bite Me (Acoustic)
16. Avril Lavigne - Love It When You Hate Me (feat. blackbear) (Acoustic)
17. Avril Lavigne - Bois Lie (feat. Machine Gun Kelly) (Acoustic)
18. Avril Lavigne - Pity Party

foobar2000 1.6.2 / Dynamic Range Meter 1.1.1
log date: 2022-11-24 18:22:33

––––––––––––––––––––––––––––––––––––––––
Analyzed: Avril Lavigne / Love Sux
––––––––––––––––––––––––––––––––––––––––

DR Peak RMS Duration Track
––––––––––––––––––––––––––––––––––––––––
DR4 -0.40 dB -5.95 dB 2:19 01-Cannonball
DR4 -0.30 dB -5.84 dB 2:43 02-Bois Lie (feat. Machine Gun Kelly)
DR4 -0.21 dB -6.30 dB 2:40 03-Bite Me
DR4 -0.40 dB -6.30 dB 2:25 04-Love It When You Hate Me (feat. blackbear)
DR4 -0.30 dB -5.77 dB 2:49 05-Love Sux
DR4 -0.60 dB -6.25 dB 2:50 06-Kiss Me Like The World Is Ending
DR5 -0.16 dB -6.73 dB 3:40 07-Avalanche
DR4 -0.30 dB -6.76 dB 3:24 08-Déjà vu
DR4 -0.40 dB -5.96 dB 2:48 09-F.U.
DR4 -0.30 dB -6.35 dB 2:33 10-All I Wanted (feat. Mark Hoppus)
DR4 -0.30 dB -7.67 dB 3:35 11-Dare To Love Me
DR4 -0.20 dB -6.45 dB 1:52 12-Break Of A Heartache
DR5 -0.10 dB -7.09 dB 3:08 13-I’m a Mess (with YUNGBLUD)
DR5 -0.21 dB -7.03 dB 2:09 14-Mercury In Retrograde
DR5 -0.21 dB -7.71 dB 3:09 15-Bite Me (Acoustic)
DR6 -0.21 dB -8.03 dB 2:33 16-Love It When You Hate Me (feat. blackbear) (Acoustic)
DR6 -0.11 dB -9.06 dB 2:50 17-Bois Lie (feat. Machine Gun Kelly) (Acoustic)
DR5 -0.20 dB -6.51 dB 1:55 18-Pity Party
––––––––––––––––––––––––––––––––––––––––

Number of tracks: 18
Official DR value: DR5

Samplerate: 48000 Hz
Channels: 2
Bits per sample: 24
Bitrate: 1889 kbps
Codec: FLAC
================================================================================



Thanks to the Original customer.