Tags
Language
Tags
October 2022
Su Mo Tu We Th Fr Sa
25 26 27 28 29 30 1
2 3 4 5 6 7 8
9 10 11 12 13 14 15
16 17 18 19 20 21 22
23 24 25 26 27 28 29
30 31 1 2 3 4 5

Andreu Jacob - Heart Cycles (2022) [Official Digital Download]

Posted By: pyatak
Andreu Jacob - Heart Cycles (2022) [Official Digital Download]

Andreu Jacob - Heart Cycles (2022) [Official Digital Download]
FLAC (tracks) 24-bit/44.1 kHz | Front Cover | Time - 45:18 minutes | 384 MB
Classical | Studio Master, Official Digital Download

Andreu Jacob Martinez Foglietti (born 1971) known as Andreu Jacob is a Catalan composer. Andreu Jacob works in such musical genres as classical and contemporary music, jazz, flamenco and other musical styles. He has a wide experience in media, television, studio recordings and movies. Besides he is a gifted multi-instrumentalist musician, producer and arranger.

TRACKLIST

1. Andreu Jacob - Heart Cycles (Introduction)
2. Andreu Jacob - Funny History
3. Andreu Jacob - There Was One Boy - Heavy Petting - They Decided That I Was Not a Virgin
4. Andreu Jacob - The Searching
5. Andreu Jacob - Hello Mister Pennington
6. Andreu Jacob - Hey Boss
7. Andreu Jacob - She Is Even More Depressed
8. Andreu Jacob - April, We Have to Try It !
9. Andreu Jacob - Somebody Died ? - Debbie Oh My God , How Is She ?
10. Andreu Jacob - Memories - the Restaurant Meeting
11. Andreu Jacob - Like Romeo and Juliet
12. Andreu Jacob - Tell Me About Debbie
13. Andreu Jacob - It Was Not a Good Time for Us - Many Years Later - Daddy Jon
14. Andreu Jacob - Why Talk to Me Now ?
15. Andreu Jacob - The Ribbon - My First Date, My First Kiss, My First Love
16. Andreu Jacob - I Wish She Would Have Told Us About You - "J"
17. Andreu Jacob - I Miss Him Every Day - It Was Wonderful Time - I Found Jay
18. Andreu Jacob - The Pool Party
19. Andreu Jacob - I Am a Mess - Mum Say Yes !19. I Am a Mess - Mum Say Yes !
20. Andreu Jacob - The Meeting in the Riverwalk
21. Andreu Jacob - The Great Christmas Present - Can We Go for a Walk ?
22. Andreu Jacob - It Is a Dream - I Miss You so Much Jon
23. Andreu Jacob - Is the Beginnings of Dementia
24. Andreu Jacob - When I Get Back and You Two Are Together - Sir, Would You Like Buy Some Flowers for Your Daughter ?
25. Andreu Jacob - I Decided It Is Better in Life to Have Fun Than Be Shy - I Have to Go
26. Andreu Jacob - Will Be Just Fine
27. Andreu Jacob - Heart Cycles (Final Credits)

foobar2000 1.6.2 / Dynamic Range Meter 1.1.1
log date: 2022-08-16 21:22:17

––––––––––––––––––––––––––––––––––––––––
Analyzed: Andreu Jacob / Heart Cycles
––––––––––––––––––––––––––––––––––––––––

DR Peak RMS Duration Track
––––––––––––––––––––––––––––––––––––––––
DR10 -3.00 dB -18.31 dB 0:45 01-Heart Cycles (Introduction)
DR11 -2.95 dB -18.89 dB 3:00 02-Funny History
DR10 -2.98 dB -18.75 dB 2:53 03-There Was One Boy - Heavy Petting - They Decided That I Was Not a Virgin
DR11 -3.66 dB -17.43 dB 0:38 04-The Searching
DR11 -2.98 dB -18.51 dB 2:16 05-Hello Mister Pennington
DR10 -3.00 dB -19.89 dB 0:37 06-Hey Boss
DR7 -3.20 dB -18.79 dB 0:40 07-She Is Even More Depressed
DR9 -2.99 dB -16.17 dB 0:33 08-April, We Have to Try It !
DR11 -2.98 dB -19.52 dB 2:43 09-Somebody Died ? - Debbie Oh My God , How Is She ?
DR10 -3.00 dB -16.45 dB 2:29 10-Memories - the Restaurant Meeting
DR14 -8.66 dB -27.42 dB 0:51 11-Like Romeo and Juliet
DR11 -4.08 dB -21.76 dB 1:02 12-Tell Me About Debbie
DR10 -5.72 dB -19.63 dB 0:59 13-It Was Not a Good Time for Us - Many Years Later - Daddy Jon
DR10 -3.00 dB -19.38 dB 0:35 14-Why Talk to Me Now ?
DR14 -2.99 dB -22.50 dB 3:29 15-The Ribbon - My First Date, My First Kiss, My First Love
DR11 -3.00 dB -20.34 dB 3:03 16-I Wish She Would Have Told Us About You - "J"
DR12 -3.00 dB -22.01 dB 0:36 17-I Miss Him Every Day - It Was Wonderful Time - I Found Jay
DR12 -2.99 dB -18.95 dB 0:42 18-The Pool Party
DR10 -2.92 dB -17.93 dB 2:04 19-I Am a Mess - Mum Say Yes !19. I Am a Mess - Mum Say Yes !
DR12 -2.99 dB -19.73 dB 5:18 20-The Meeting in the Riverwalk
DR10 -3.18 dB -18.81 dB 0:50 21-The Great Christmas Present - Can We Go for a Walk ?
DR10 -2.99 dB -18.84 dB 3:40 22-It Is a Dream - I Miss You so Much Jon
DR11 -6.17 dB -23.63 dB 0:37 23-Is the Beginnings of Dementia
DR11 -3.00 dB -18.52 dB 2:16 24-When I Get Back and You Two Are Together - Sir, Would You Like Buy Some Flowers for Your Daughter ?
DR9 -3.88 dB -17.78 dB 0:34 25-I Decided It Is Better in Life to Have Fun Than Be Shy - I Have to Go
DR10 -2.99 dB -18.33 dB 0:39 26-Will Be Just Fine
DR12 -3.10 dB -16.80 dB 1:28 27-Heart Cycles (Final Credits)
––––––––––––––––––––––––––––––––––––––––

Number of tracks: 27
Official DR value: DR11

Samplerate: 44100 Hz
Channels: 2
Bits per sample: 24
Bitrate: 1376 kbps
Codec: FLAC
================================================================================



Thanks to the Original customer.