Tags
Language
Tags
October 2022
Su Mo Tu We Th Fr Sa
25 26 27 28 29 30 1
2 3 4 5 6 7 8
9 10 11 12 13 14 15
16 17 18 19 20 21 22
23 24 25 26 27 28 29
30 31 1 2 3 4 5

Alessandro Fagiuoli - Brun - Violin Sonata No. 1 in D Minor - No. 2 in D Major - Cello Sonata in F Minor (2022) [24/96]

Posted By: pyatak
Alessandro Fagiuoli - Brun - Violin Sonata No. 1 in D Minor - No. 2 in D Major - Cello Sonata in F Minor (2022) [24/96]

Alessandro Fagiuoli - Brun - Violin Sonata No. 1 in D Minor - No. 2 in D Major - Cello Sonata in F Minor (2022) [24/96]
FLAC (tracks) 24-bit/96 kHz | Front Cover | Time - 82:03 minutes | 1,27 GB
Classical | Studio Master, Official Digital Download

Let me start at the end, in 1959, the year of Fritz Brun’s death. For the year 1959 seems to mark a tragic watershed in the history of classical music. In this year, a generation of composers died, almost all of whom wrote tonal music (both romantic and neoclassical), such as Egon Kornauth, Heitor Villa-Lobos, Eric Zeisl, George Antheil and Bohuslav Martinů (who passed away in Liestal, Switzerland). In the 1950s and 1960s, years of politicised musical experimentation, and in the years of protest until the early 1980s, most of these names were destined to disappear almost completely from concert halls and recording studios.

Things were no better in the more musically conservative Switzerland: 1959 was the year of the passing of Friedrich Niggli, Raffaele d’Alessandro, Ernest Bloch (albeit in faraway Portland) and of Fritz Brun.

Brun’s music was undoubtedly influenced by Romanticism, with a certain openness to Neoclassicism, but with a total rejection of dodecaphony, serialism and the post-war avant-garde in all its offshoots. It was romantic above all in the belief, to which the composer remained true throughout his life, that sentiment and personal emotions are the stuff that music is made of. Not sentimentalism, but rather the sublimation of emotions and personal experience, far removed from programmatic music and as free as possible from any major biographical explanations.

TRACKLIST

1. Alessandro Fagiuoli - Violin Sonata No. 1 in D Minor: I. Sehr leidenschaftlich und frei im Vortrag
2. Alessandro Fagiuoli - Violin Sonata No. 1 in D Minor: II. Langsam und sehnsüchtig
3. Alessandro Fagiuoli - Violin Sonata No. 1 in D Minor: III. Lebhaft
4. Alessandro Fagiuoli - Violin Sonata No. 2 in D Major: I. Allegro moderato
5. Alessandro Fagiuoli - Violin Sonata No. 2 in D Major: II. Vivace
6. Alessandro Fagiuoli - Violin Sonata No. 2 in D Major: III. Allegro non troppo
7. Andrea Musto - Cello Sonata in F Minor: I. Allegro appassionato
8. Andrea Musto - Cello Sonata in F Minor: II. Grave
9. Andrea Musto - Cello Sonata in F Minor: III. Allegro vivace

foobar2000 1.6.2 / Dynamic Range Meter 1.1.1
log date: 2022-08-16 21:11:19

––––––––––––––––––––––––––––––––––––––––
Analyzed: Alessandro Fagiuoli / Brun: Violin Sonata No. 1 in D Minor - Violin Sonata No. 2 in D Major - Cello Sonata in F Minor (1-6)
Andrea Musto / Brun: Violin Sonata No. 1 in D Minor - Violin Sonata No. 2 in D Major - Cello Sonata in F Minor (7-9)
––––––––––––––––––––––––––––––––––––––––

DR Peak RMS Duration Track
––––––––––––––––––––––––––––––––––––––––
DR13 -1.03 dB -18.34 dB 15:09 01-Violin Sonata No. 1 in D Minor: I. Sehr leidenschaftlich und frei im Vortrag
DR13 -1.10 dB -18.03 dB 9:09 02-Violin Sonata No. 1 in D Minor: II. Langsam und sehnsüchtig
DR13 -1.10 dB -17.89 dB 11:49 03-Violin Sonata No. 1 in D Minor: III. Lebhaft
DR11 -1.10 dB -15.72 dB 10:39 04-Violin Sonata No. 2 in D Major: I. Allegro moderato
DR11 -1.10 dB -15.63 dB 5:27 05-Violin Sonata No. 2 in D Major: II. Vivace
DR12 -1.10 dB -16.87 dB 7:53 06-Violin Sonata No. 2 in D Major: III. Allegro non troppo
DR9 -1.10 dB -13.19 dB 8:09 07-Cello Sonata in F Minor: I. Allegro appassionato
DR11 -1.10 dB -16.53 dB 8:00 08-Cello Sonata in F Minor: II. Grave
DR10 -1.10 dB -14.47 dB 5:49 09-Cello Sonata in F Minor: III. Allegro vivace
––––––––––––––––––––––––––––––––––––––––

Number of tracks: 9
Official DR value: DR12

Samplerate: 96000 Hz
Channels: 2
Bits per sample: 24
Bitrate: 2039 kbps
Codec: FLAC
================================================================================



Thanks to the Original customer.