Subcategories

IDRAWGIRLS - Drawing Essenstials: Dynamic Figures

Posted By: ParRus
IDRAWGIRLS - Drawing Essenstials: Dynamic Figures

IDRAWGIRLS - Drawing Essenstials: Dynamic Figures
English | WMV + PDF Work files | 1280 x 720 | WMV3 ~892 kbps | 15 fps
WMA 48 kbps | 44.1 KHz | 1 channel | 1 GB
Genre: elearning / Drawing

If you are struggling with drawing action pose and dynamic figure in perspective, this tutorial is for YOU! One of the another frequently requested from viewers (YOU) is Premium Traditional Dynamic Foreshortening Figures Tutorial. In this tutorial, you will learn the Quick and Easy way to draw figure in various camera angles with dynamic foreshortening and action packed poses. You will learn to apply simple metric and theory of how to easily to create a pose you want in your shots. You will learn to begin with geometry shapes and gesture lines drawn. You will also learn the Correct Approach to Figure Drawing foundation from rough sketch to finish drawing.
If you are struggling with drawing action pose and dynamic figure in perspective, this tutorial is for YOU! One of the another frequently requested from viewers (YOU) is Premium Traditional Dynamic Foreshortening Figures Tutorial. In this tutorial, you will learn the Quick and Easy way to draw figure in various camera angles with dynamic foreshortening and action packed poses. You will learn to apply simple metric and theory of how to easily to create a pose you want in your shots. You will learn to begin with geometry shapes and gesture lines drawn. You will also learn the Correct Approach to Figure Drawing foundation from rough sketch to finish drawing.

Over the years, I have to develop quick and effective way to sketch, draw, and paint variety of facial structures for many character designs as a concept artist. I've captured its essence for you in this easy to follow Premium Video Tutorial. This complete package will get you going quickly and will even provide you the right foundation to further develop your artistic skill. If you are new, my tutorial will make a HUGE improvement in your portrait drawing skill. Even if you are good, this tutorial is guaranteed to boost you to the NEXT LEVEL! If you are an ARTIST and looking to IMPROVE, This Tutorial is for YOU!

The main focus will be around the perspective, foreshortening, and action poses of female figures. In this tutorial you will find yourself further into the right technique and mindset of how to draw and sketch figure structure in various camera angles and make it more dynamic with foreshortening.

•Over 2 hours of Video tutorials, included 8 Chapters, 8 Figures
•You will learn to draw and sketch Foreshortening Dynamic Action Figures. In Depth & Intuitive!
•You will learn how to create action pose that is more dynamic using perspective foreshortening.
•You will learn to begin with geometry shapes and gesture lines drawn.
•You will learn traditional drawing tips and tricks to create foreshortening figures.
•High Resolution (approx: 1280 x 720) HD wmv Video Media files.
•Draw and Sketch with pencil techniques with variety of tips and tricks .

Work files + pdf files are included

C:\Users\Desktop\Dynamic Figures Chapter 02.wmv
General
Complete name : C:\Users\Àäìèíèñòðàòîð\Desktop\Dynamic Figures Chapter 02.wmv
Format : Windows Media
File size : 140 MiB
Duration : 20mn 12s
Overall bit rate mode : Variable
Overall bit rate : 971 Kbps
Maximum Overall bit rate : 1 757 Kbps
Movie name : Dynamic Figures Chapter 02
Performer : xia taptara
Encoded date : UTC 2011-03-30 09:03:37.340
Copyright : Xia Taptara LLC
Video #2
ID : 2
Format : VC-1
Format profile : MP@HL
Codec ID : WMV3
Codec ID/Info : Windows Media Video 9
Codec ID/Hint : WMV3
Description of the codec : Windows Media Video 9
Duration : 20mn 12s
Bit rate mode : Variable
Bit rate : 892 Kbps
Width : 1 280 pixels
Height : 720 pixels
Display aspect ratio : 16:9
Frame rate : 15.000 fps
Resolution : 24 bits
Scan type : Progressive
Bits/(Pixel*Frame) : 0.065
Stream size : 129 MiB (92%)
Language : English (US)
Audio #1
ID : 1
Format : WMA2
Format profile : L2
Codec ID : 161
Codec ID/Info : Windows Media Audio 2
Description of the codec : Windows Media Audio 9.2 - 48 kbps, 44 kHz, mono (A/V) 1-pass CBR
Duration : 20mn 12s
Bit rate mode : Constant
Bit rate : 48.0 Kbps
Channel(s) : 1 channel
Sampling rate : 44.1 KHz
Resolution : 16 bits
Stream size : 6.94 MiB (5%)
Language : English (US)


Screenshots

IDRAWGIRLS - Drawing Essenstials: Dynamic Figures

IDRAWGIRLS - Drawing Essenstials: Dynamic Figures

IDRAWGIRLS - Drawing Essenstials: Dynamic Figures

Sample pages of the PDF-workbook

IDRAWGIRLS - Drawing Essenstials: Dynamic Figures

IDRAWGIRLS - Drawing Essenstials: Dynamic Figures

IDRAWGIRLS - Drawing Essenstials: Dynamic Figures


no mirrors please, Follow The Rules

For more, Visit my blog