Tags
Language
Tags
May 2024
Su Mo Tu We Th Fr Sa
28 29 30 1 2 3 4
5 6 7 8 9 10 11
12 13 14 15 16 17 18
19 20 21 22 23 24 25
26 27 28 29 30 31 1

Tonbo! S01E03 Wedges and regrets 540p AMZN

Posted By: Otaku
Tonbo! S01E03 Wedges and regrets 540p AMZN

Tonbo! S01E03 Wedges and regrets 540p AMZN
WEB-DL | MKV | 960x540 | English / 日本語 | H264 @ 939 kbps | E-AC-3 @ 224.0 kbps | 24 min 13 s | 245 MiB
Subtitles: English, Français



Tonbo!.S01E03.Wedges.and.regrets.540p.AMZN.WEB-DL.DUAL.DDP2.0.H.264.MSubs-ToonsHub.mkv (245.2 MB)



General
Unique ID : 299685822218133378779265811535236878419 (0xE17563CFF34D51B7B66BDFF5A18AD053)
Complete name : ./Tonbo!.S01E03.Wedges.and.regrets.540p.AMZN.WEB-DL.DUAL.DDP2.0.H.264.MSubs-ToonsHub.mkv
Format : Matroska
Format version : Version 4
File size : 245 MiB
Duration : 24 min 13 s
Overall bit rate : 1 415 kb/s
Writing application : Lavf58.29.100
Writing library : Lavf58.29.100
ErrorDetectionType : Per level 1

Video
ID : 1
Format : AVC
Format/Info : Advanced Video Codec
Format profile : Main@L3.1
Format settings : CABAC / 5 Ref Frames
Format settings, CABAC : Yes
Format settings, Reference frames : 5 frames
Codec ID : V_MPEG4/ISO/AVC
Duration : 24 min 13 s
Bit rate : 939 kb/s
Width : 960 pixels
Height : 540 pixels
Display aspect ratio : 16:9
Frame rate mode : Constant
Frame rate : 23.976 (24000/1001) FPS
Color space : YUV
Chroma subsampling : 4:2:0
Bit depth : 8 bits
Scan type : Progressive
Bits/(Pixel*Frame) : 0.076
Stream size : 163 MiB (66%)
Title : by ToonsHub
Writing library : AVC Coding
Default : Yes
Forced : No
Color range : Limited
Color primaries : BT.709
Transfer characteristics : BT.709
Matrix coefficients : BT.709

Audio #1
ID : 2
Format : E-AC-3
Format/Info : Enhanced AC-3
Commercial name : Dolby Digital Plus
Codec ID : A_EAC3
Duration : 24 min 13 s
Bit rate mode : Constant
Bit rate : 224 kb/s
Channel(s) : 2 channels
Channel layout : L R
Sampling rate : 48.0 kHz
Frame rate : 31.250 FPS (1536 SPF)
Bit depth : 32 bits
Compression mode : Lossy
Stream size : 38.8 MiB (16%)
Title : [ToonsHub] English
Language : English
Service kind : Complete Main
Default : Yes
Forced : No

Audio #2
ID : 3
Format : E-AC-3
Format/Info : Enhanced AC-3
Commercial name : Dolby Digital Plus
Codec ID : A_EAC3
Duration : 24 min 13 s
Bit rate mode : Constant
Bit rate : 224 kb/s
Channel(s) : 2 channels
Channel layout : L R
Sampling rate : 48.0 kHz
Frame rate : 31.250 FPS (1536 SPF)
Bit depth : 32 bits
Compression mode : Lossy
Stream size : 38.8 MiB (16%)
Title : [ToonsHub] Japanese
Language : Japanese
Service kind : Complete Main
Default : Yes
Forced : No

Text #1
ID : 4
Format : UTF-8
Codec ID : S_TEXT/UTF8
Codec ID/Info : UTF-8 Plain Text
Duration : 24 min 7 s
Title : [ToonsHub] English (United States)
Writing library : Lavc58.54.100 srt
Language : English
Default : No
Forced : No

Text #2
ID : 5
Format : UTF-8
Codec ID : S_TEXT/UTF8
Codec ID/Info : UTF-8 Plain Text
Duration : 24 min 7 s
Title : [ToonsHub] French (France)
Writing library : Lavc58.54.100 srt
Language : French
Default : No
Forced : No





Tonbo! S01E03 Wedges and regrets 540p AMZN


Tonbo! S01E03 Wedges and regrets 540p AMZN


Tonbo! S01E03 Wedges and regrets 540p AMZN


Tonbo! S01E03 Wedges and regrets 540p AMZN