Tags
Language
Tags
May 2024
Su Mo Tu We Th Fr Sa
28 29 30 1 2 3 4
5 6 7 8 9 10 11
12 13 14 15 16 17 18
19 20 21 22 23 24 25
26 27 28 29 30 31 1

Oi! Tonbo - 03

Posted By: Otaku
Oi! Tonbo - 03

Oi! Tonbo - 03
MKV | 1920x1080 | English / 日本語 | H264 @ 4000 kbps | AAC @ 192.0 kbps | 24 min 13 s | 753 MiB
Subtitles: English, Français



[Erai-raws] Oi! Tonbo - 03 [1080p][Multiple Subtitle][FA22CFE9].mkv (753.1 MB)



General
Unique ID : 209881841578069143590730171000281653000 (0x9DE5C5B89670BF2F8D76BFD191EC5F08)
Complete name : ./[Erai-raws] Oi! Tonbo - 03 [1080p][Multiple Subtitle][FA22CFE9].mkv
Format : Matroska
Format version : Version 4
File size : 753 MiB
Duration : 24 min 13 s
Overall bit rate : 4 347 kb/s
Encoded date : UTC 2024-04-20 02:40:16
Writing application : mkvmerge v83.0 ('Circle Of Friends') 64-bit
Writing library : libebml v1.4.5 + libmatroska v1.7.1
Attachments : 01_APompadourSample.ttf / Bahij SultanNahia-Regular.ttf / Hacen Extender Lt.ttf / Hacen Liner XL.ttf / Hacen Liner XXL.ttf / Hacen Promoter Lt.ttf / OpenSans-Bold.ttf / OpenSans-ExtraBold.ttf / OpenSans-Italic.ttf / OpenSans-Light.ttf / OpenSans-Regular.ttf / OpenSans-Semibold.ttf / OpenSans-SemiboldItalic.ttf / times.ttf / AdobeArabic-Bold.otf

Video
ID : 1
Format : AVC
Format/Info : Advanced Video Codec
Format profile : Main@L3.1
Format settings : CABAC / 4 Ref Frames
Format settings, CABAC : Yes
Format settings, Reference frames : 4 frames
Codec ID : V_MPEG4/ISO/AVC
Duration : 24 min 13 s
Bit rate : 4 000 kb/s
Width : 1 920 pixels
Height : 1 080 pixels
Display aspect ratio : 16:9
Frame rate mode : Constant
Frame rate : 23.976 (24000/1001) FPS
Color space : YUV
Chroma subsampling : 4:2:0
Bit depth : 8 bits
Scan type : Progressive
Bits/(Pixel*Frame) : 0.080
Stream size : 693 MiB (92%)
Writing library : x264 core 148 r265 3b70645
Encoding settings : cabac=1 / ref=2 / deblock=1:0:0 / analyse=0x1:0x111 / me=hex / subme=7 / psy=1 / psy_rd=1.00:0.00 / mixed_ref=1 / me_range=16 / chroma_me=1 / trellis=1 / 8x8dct=0 / cqm=0 / deadzone=21,11 / fast_pskip=1 / chroma_qp_offset=-2 / threads=9 / lookahead_threads=1 / sliced_threads=0 / nr=0 / decimate=1 / interlaced=0 / bluray_compat=0 / constrained_intra=0 / bframes=3 / b_pyramid=2 / b_adapt=1 / b_bias=0 / direct=1 / weightb=1 / open_gop=0 / weightp=2 / keyint=1000 / keyint_min=501 / scenecut=0 / intra_refresh=0 / rc_lookahead=40 / rc=2pass / mbtree=1 / bitrate=4000 / ratetol=1.0 / qcomp=0.60 / qpmin=0 / qpmax=69 / qpstep=4 / cplxblur=20.0 / qblur=0.5 / ip_ratio=1.40 / aq=1:1.00
Language : Japanese
Default : Yes
Forced : No

Audio #1
ID : 2
Format : AAC LC
Format/Info : Advanced Audio Codec Low Complexity
Codec ID : A_AAC-2
Duration : 24 min 13 s
Bit rate : 192 kb/s
Channel(s) : 2 channels
Channel layout : L R
Sampling rate : 44.1 kHz
Frame rate : 43.066 FPS (1024 SPF)
Compression mode : Lossy
Delay relative to video : -23 ms
Stream size : 33.8 MiB (4%)
Language : Japanese
Default : Yes
Forced : No

Audio #2
ID : 3
Format : AAC LC
Format/Info : Advanced Audio Codec Low Complexity
Codec ID : A_AAC-2
Duration : 24 min 13 s
Bit rate : 128 kb/s
Channel(s) : 2 channels
Channel layout : L R
Sampling rate : 48.0 kHz
Frame rate : 46.875 FPS (1024 SPF)
Compression mode : Lossy
Delay relative to video : -23 ms
Stream size : 22.2 MiB (3%)
Language : English
Default : Yes
Forced : No

Text #1
ID : 4
Format : ASS
Codec ID : S_TEXT/ASS
Codec ID/Info : Advanced Sub Station Alpha
Duration : 23 min 58 s
Bit rate : 90 b/s
Frame rate : 0.218 FPS
Count of elements : 314
Compression mode : Lossless
Stream size : 16.0 KiB (0%)
Title : English
Language : English
Default : Yes
Forced : No

Text #2
ID : 5
Format : ASS
Codec ID : S_TEXT/ASS
Codec ID/Info : Advanced Sub Station Alpha
Duration : 23 min 59 s
Bit rate : 100 b/s
Frame rate : 0.224 FPS
Count of elements : 323
Compression mode : Lossless
Stream size : 17.6 KiB (0%)
Title : French (ADN)
Language : French
Default : No
Forced : No

Text #3
ID : 6
Format : ASS
Codec ID : S_TEXT/ASS
Codec ID/Info : Advanced Sub Station Alpha
Duration : 23 min 59 s
Bit rate : 96 b/s
Frame rate : 0.230 FPS
Count of elements : 331
Compression mode : Lossless
Stream size : 16.9 KiB (0%)
Title : French (AMZ)
Language : French
Default : No
Forced : No





Oi! Tonbo - 03


Oi! Tonbo - 03


Oi! Tonbo - 03


Oi! Tonbo - 03