Tags
Language
Tags
May 2024
Su Mo Tu We Th Fr Sa
28 29 30 1 2 3 4
5 6 7 8 9 10 11
12 13 14 15 16 17 18
19 20 21 22 23 24 25
26 27 28 29 30 31 1

MF Ghost - S01E11

Posted By: Otaku
MF Ghost - S01E11

MF Ghost - S01E11
MKV | 1920x1080 | 日本語 | H265 @ 3418 kbps | AAC @ 128.0 kbps | 23 min 40 s | 604 MiB
Subtitles: English, Русский, Español, Deutsch, Italiano, العربية, Français, Português



[DKB] MF Ghost - S01E11 [1080p][HEVC x265 10bit][Multi-Subs].mkv (604.0 MB)



General
Unique ID : 247858867019024274443206352530318420118 (0xBA77E1A34247ED8AE475564A756DE896)
Complete name : ./[DKB] MF Ghost - S01E11 [1080p][HEVC x265 10bit][Multi-Subs].mkv
Format : Matroska
Format version : Version 4
File size : 604 MiB
Duration : 23 min 40 s
Overall bit rate : 3 568 kb/s
Encoded date : UTC 2023-12-10 18:47:31
Writing application : mkvmerge v79.0 ('Funeral Pyres') 64-bit
Writing library : libebml v1.4.4 + libmatroska v1.7.1
Attachments : AdobeArabic-Bold.otf / arial.ttf / arialbd.ttf / impact.ttf / tahoma.ttf / times.ttf / trebuc.ttf / verdana.ttf

Video
ID : 1
Format : HEVC
Format/Info : High Efficiency Video Coding
Format profile : Main 10@L5@Main
Codec ID : V_MPEGH/ISO/HEVC
Duration : 23 min 40 s
Bit rate : 3 418 kb/s
Width : 1 920 pixels
Height : 1 080 pixels
Display aspect ratio : 16:9
Frame rate mode : Variable
Frame rate : 23.976 FPS
Color space : YUV
Chroma subsampling : 4:2:0
Bit depth : 10 bits
Bits/(Pixel*Frame) : 0.069
Stream size : 579 MiB (96%)
Title : [DKB Team]
Writing library : x265 3.5+104+20-5f9a54004:[Windows][MSVC 1937][64 bit] 10bit
Encoding settings : cpuid=1111039 / frame-threads=4 / numa-pools=24 / wpp / no-pmode / no-pme / no-psnr / no-ssim / log-level=2 / input-csp=1 / input-res=1920x1080 / interlace=0 / total-frames=34048 / level-idc=0 / high-tier=1 / uhd-bd=0 / ref=6 / no-allow-non-conformance / no-repeat-headers / annexb / no-aud / no-eob / no-eos / no-hrd / info / hash=0 / temporal-layers=0 / open-gop / min-keyint=24 / keyint=250 / gop-lookahead=0 / bframes=8 / b-adapt=2 / b-pyramid / bframe-bias=0 / rc-lookahead=120 / lookahead-slices=4 / scenecut=40 / no-hist-scenecut / radl=0 / no-splice / no-intra-refresh / ctu=64 / min-cu-size=8 / rect / no-amp / max-tu-size=32 / tu-inter-depth=1 / tu-intra-depth=1 / limit-tu=0 / rdoq-level=2 / dynamic-rd=0.00 / no-ssim-rd / signhide / no-tskip / nr-intra=0 / nr-inter=0 / no-constrained-intra / strong-intra-smoothing / max-merge=3 / limit-refs=3 / limit-modes / me=2 / subme=3 / merange=57 / temporal-mvp / no-frame-dup / hme / Level / merange / L0,L1,L2=16,32,57 / weightp / weightb / no-analyze-src-pics / deblock=-1:-1 / sao / no-sao-non-deblock / rd=4 / selective-sao=4 / no-early-skip / rskip / no-fast-intra / no-tskip-fast / no-cu-lossless / no-b-intra / no-splitrd-skip / rdpenalty=0 / psy-rd=0.90 / psy-rdoq=1.35 / no-rd-refine / no-lossless / cbqpoffs=-1 / crqpoffs=-1 / rc=crf / crf=20.3 / qcomp=0.72 / qpstep=4 / stats-write=0 / stats-read=0 / ipratio=1.40 / pbratio=1.30 / aq-mode=3 / aq-strength=1.00 / aq-bias-strength=1.00 / cutree / zone-count=0 / no-strict-cbr / qg-size=32 / no-rc-grain / qpmax=69 / qpmin=0 / no-const-vbv / sar=0 / overscan=0 / videoformat=5 / range=0 / colorprim=1 / transfer=1 / colormatrix=1 / chromaloc=0 / display-window=0 / cll=0,0 / min-luma=0 / max-luma=1023 / log2-max-poc-lsb=8 / vui-timing-info / vui-hrd-info / slices=1 / no-opt-qp-pps / no-opt-ref-list-length-pps / no-multi-pass-opt-rps / scenecut-bias=0.05 / no-opt-cu-delta-qp / no-aq-motion / no-hdr10 / no-hdr10-opt / no-dhdr10-opt / no-idr-recovery-sei / analysis-reuse-level=0 / analysis-save-reuse-level=0 / analysis-load-reuse-level=0 / scale-factor=0 / refine-intra=0 / refine-inter=0 / refine-mv=1 / refine-ctu-distortion=0 / no-limit-sao / ctu-info=0 / no-lowpass-dct / refine-analysis-type=0 / copy-pic=1 / max-ausize-factor=1.0 / no-dynamic-refine / no-single-sei / no-hevc-aq / no-svt / no-field / qp-adaptation-range=1.00 / scenecut-aware-qp=0 / conformance-window-offsets / right=0 / bottom=0 / decoder-max-rate=0 / no-vbv-live-multi-pass / no-mcstf / no-sbrc
Default : Yes
Forced : No
Color range : Limited
Color primaries : BT.709
Transfer characteristics : BT.709
Matrix coefficients : BT.709

Audio
ID : 2
Format : AAC LC
Format/Info : Advanced Audio Codec Low Complexity
Codec ID : A_AAC-2
Duration : 23 min 40 s
Bit rate : 128 kb/s
Channel(s) : 2 channels
Channel layout : L R
Sampling rate : 44.1 kHz
Frame rate : 43.066 FPS (1024 SPF)
Compression mode : Lossy
Stream size : 21.7 MiB (4%)
Title : Japanese
Language : Japanese
Default : No
Forced : No

Text #1
ID : 3
Format : ASS
Codec ID : S_TEXT/ASS
Codec ID/Info : Advanced Sub Station Alpha
Duration : 23 min 34 s
Bit rate : 157 b/s
Frame rate : 0.209 FPS
Count of elements : 295
Compression mode : Lossless
Stream size : 27.2 KiB (0%)
Title : English / English(US)
Language : English
Default : Yes
Forced : No

Text #2
ID : 4
Format : ASS
Codec ID : S_TEXT/ASS
Codec ID/Info : Advanced Sub Station Alpha
Duration : 23 min 34 s
Bit rate : 155 b/s
Frame rate : 0.211 FPS
Count of elements : 299
Compression mode : Lossless
Stream size : 26.9 KiB (0%)
Title : Spanish (Latin American) / Español (América Latina)
Language : Spanish
Default : No
Forced : No

Text #3
ID : 5
Format : ASS
Codec ID : S_TEXT/ASS
Codec ID/Info : Advanced Sub Station Alpha
Duration : 23 min 34 s
Bit rate : 155 b/s
Frame rate : 0.208 FPS
Count of elements : 294
Compression mode : Lossless
Stream size : 26.9 KiB (0%)
Title : Spanish / Español (España)
Language : Spanish
Default : No
Forced : No

Text #4
ID : 6
Format : ASS
Codec ID : S_TEXT/ASS
Codec ID/Info : Advanced Sub Station Alpha
Duration : 23 min 34 s
Bit rate : 139 b/s
Frame rate : 0.220 FPS
Count of elements : 311
Compression mode : Lossless
Stream size : 24.1 KiB (0%)
Title : French / Français (France)
Language : French
Default : No
Forced : No

Text #5
ID : 7
Format : ASS
Codec ID : S_TEXT/ASS
Codec ID/Info : Advanced Sub Station Alpha
Duration : 23 min 34 s
Bit rate : 156 b/s
Frame rate : 0.210 FPS
Count of elements : 297
Compression mode : Lossless
Stream size : 27.0 KiB (0%)
Title : Portuguese (Brazilian) / Português (Brasil)
Language : Portuguese
Default : No
Forced : No

Text #6
ID : 8
Format : ASS
Codec ID : S_TEXT/ASS
Codec ID/Info : Advanced Sub Station Alpha
Duration : 23 min 34 s
Bit rate : 193 b/s
Frame rate : 0.209 FPS
Count of elements : 295
Compression mode : Lossless
Stream size : 33.4 KiB (0%)
Title : Arabic / العربية
Language : Arabic
Default : No
Forced : No

Text #7
ID : 9
Format : ASS
Codec ID : S_TEXT/ASS
Codec ID/Info : Advanced Sub Station Alpha
Duration : 23 min 35 s
Bit rate : 160 b/s
Frame rate : 0.232 FPS
Count of elements : 328
Compression mode : Lossless
Stream size : 27.8 KiB (0%)
Title : Italian / Italiano
Language : Italian
Default : No
Forced : No

Text #8
ID : 10
Format : ASS
Codec ID : S_TEXT/ASS
Codec ID/Info : Advanced Sub Station Alpha
Duration : 23 min 34 s
Bit rate : 157 b/s
Frame rate : 0.262 FPS
Count of elements : 370
Compression mode : Lossless
Stream size : 27.1 KiB (0%)
Title : German / Deutsch
Language : German
Default : No
Forced : No

Text #9
ID : 11
Format : ASS
Codec ID : S_TEXT/ASS
Codec ID/Info : Advanced Sub Station Alpha
Duration : 23 min 34 s
Bit rate : 258 b/s
Frame rate : 0.231 FPS
Count of elements : 327
Compression mode : Lossless
Stream size : 44.7 KiB (0%)
Title : Russian / Русский
Language : Russian
Default : No
Forced : No





MF Ghost - S01E11


MF Ghost - S01E11


MF Ghost - S01E11


MF Ghost - S01E11