Tags
Language
Tags

Maken-ki! (2011)

Posted By: Lebedev30
Maken-ki! (2011)

Maken-ki! (2011)
BDRip | MKV | 1920x1080 | H264@~10000 Kbps | 12x ~ 24mn | 12x ~1.8 Gb
Japanese FLAC@692 Kbps | 2 channels | Subtitles: None
Genre: contemporary fantasy, ecchi, harem, large breasts, love polygon, nudity, romance, school life, seinen, small breasts, sudden girlfriend appearance


Description:
* Based on a manga by Takeda Hiromitsu formerly serialised in Dragon Age Pure, but moved to Gekkan Dragon Age when the magazine was cancelled.

Ooyama Takeru, a mostly normal yet perverted guy, enrols into Tenbi Gakuen — once an all-girls school now turned into a co-ed school. Unbeknownst to him, the only students admitted are those who are able to control a source of energy found in all living things called Element, and thus can use magical artefacts called Maken, giving the users specific and varied abilities.

On the first day, after three years he meets again: Amaya Haruko, his childhood friend, Kushiya Inaho, a weird busty girl who declares she is his fiancée, and Himegami Kodama, a blonde oujo who wants to kill him. On a whim, the school principle Rokujou Minori decides that he and the three girls are to live in the same room. Furthermore, after being persuaded by Haruko, Takeru decides to join the Maken-ki, a special force unit under the school student council, whose responsibility is to mediate duels between students in the school. However, he later finds out that no Maken is compatible with him.

How will his life continue in this school, where the students get into duels that showcase their magic and combat powers, which he apparently does not have?




01. The Day We Swore to Heaven
02. Girls Are Amazing
03. Welcome to Maken-ki
04. The Enemy Is at Tenbi
05. The Strongest Girl in Tenbi
06. Like Rain on a Sunny Day
07. The Goddesses Who Came Down to Tenbi
08. Syria Will Give You Everything
09. Stormy Games
10. The Girls of Light and Shadow
11. Macaron Limited-Time Only Service Day
12. Protectors of Paradise


General
Format : Matroska
Format version : Version 4 / Version 2
File size : 1.85 GiB
Duration : 24 min 43 s
Overall bit rate mode : Variable
Overall bit rate : 10.7 Mb/s
Encoded date : UTC 2022-03-09 15:44:21
Writing application : mkvmerge v32.0.0 ('Astral Progressions') 64-bit
Writing library : libebml v1.3.7 + libmatroska v1.5.0

Video
ID : 2
Format : AVC
Format/Info : Advanced Video Codec
Format profile : High 10@L5.1
Format settings : CABAC / 16 Ref Frames
Format settings, CABAC : Yes
Format settings, RefFrames : 16 frames
Codec ID : V_MPEG4/ISO/AVC
Duration : 24 min 43 s
Bit rate : 10 000 kb/s
Width : 1 920 pixels
Height : 1 080 pixels
Display aspect ratio : 16:9
Frame rate mode : Constant
Frame rate : 23.976 (24000/1001) FPS
Color space : YUV
Chroma subsampling : 4:2:0
Bit depth : 10 bits
Scan type : Progressive
Bits/(Pixel*Frame) : 0.201
Stream size : 1.73 GiB (94%)
Writing library : x264 core 157 r2969 d4099dd
Encoding settings : cabac=1 / ref=16 / deblock=1:0:0 / analyse=0x3:0x133 / me=tesa / subme=11 / psy=1 / psy_rd=1.00:0.00 / mixed_ref=1 / me_range=24 / chroma_me=1 / trellis=2 / 8x8dct=1 / cqm=0 / deadzone=21,11 / fast_pskip=0 / chroma_qp_offset=-2 / threads=12 / lookahead_threads=3 / sliced_threads=0 / nr=0 / decimate=1 / interlaced=0 / bluray_compat=0 / constrained_intra=0 / bframes=16 / b_pyramid=2 / b_adapt=2 / b_bias=0 / direct=3 / weightb=1 / open_gop=0 / weightp=2 / keyint=240 / keyint_min=23 / scenecut=40 / intra_refresh=0 / rc_lookahead=60 / rc=2pass / mbtree=1 / bitrate=10000 / ratetol=1.0 / qcomp=0.60 / qpmin=0 / qpmax=81 / qpstep=4 / cplxblur=20.0 / qblur=0.5 / ip_ratio=1.40 / aq=1:1.00
Default : Yes
Forced : No

Audio
ID : 1
Format : FLAC
Format/Info : Free Lossless Audio Codec
Codec ID : A_FLAC
Duration : 24 min 43 s
Bit rate mode : Variable
Bit rate : 692 kb/s
Channel(s) : 2 channels
Sampling rate : 48.0 kHz
Frame rate : 11.719 FPS (4096 SPF)
Bit depth : 16 bits
Stream size : 122 MiB (6%)
Writing library : libFLAC 1.2.1 (UTC 2007-09-17)
Default : Yes
Forced : No


Screenshots

Maken-ki! (2011)

Maken-ki! (2011)

Maken-ki! (2011)


My publications | Rss Channel