Tags
Language
Tags

Grenadier: Hohoemi no Senshi (2004-2005)

Posted By: Lebedev30
Grenadier: Hohoemi no Senshi (2004-2005)

Grenadier: Hohoemi no Senshi (2004-2005)
BDRip | MKV | 1892x1068 | H264@~5000 Kbps | 12x ~ 24mn | 12x ~0.9 Gb
Japanese FLAC@690 Kbps | 2 channels | Subtitles: None
Genre: action, adventure, ecchi, gunfights, large breasts, shounen, violence


Description:
* Based on the manga by Kaise Sousuke.

During the age of Japanese Civil War, the faithful samurai Kojima Yajirou is surrounded by an enemy army. At the last moment, the buxom and alluring Tendou Rushuna appears, saving him with a smile… and a high-calibre revolver. She is travelling across Japan in search of a way to bring an end to war. Yajirou and Rushuna challenge countless opponents with his sword and her talent for reloading on the bounce.






01. The Smiling Senshi
02. Rushuna Under Attack
03. Enlightened Evil
04. The Town That Does Not Smile
05. Explosion, Kensousen, Kurenai Touka
06. The Balloonist: Mikan`s Revenge
07. Destination Tento
08. An Enemy from the Past, Teppa Aizen
09. When the Wind Flower Dances
10. Entering Tento
11. Showdown with Tenshi
12. Things Learned on the Road


General
Format : Matroska
Format version : Version 4 / Version 2
File size : 987 MiB
Duration : 24 min 15 s
Overall bit rate mode : Variable
Overall bit rate : 5 692 kb/s
Encoded date : UTC 2022-02-25 22:21:11
Writing application : mkvmerge v32.0.0 ('Astral Progressions') 64-bit
Writing library : libebml v1.3.7 + libmatroska v1.5.0

Video
ID : 2
Format : AVC
Format/Info : Advanced Video Codec
Format profile : High@L5.1
Format settings : CABAC / 16 Ref Frames
Format settings, CABAC : Yes
Format settings, RefFrames : 16 frames
Codec ID : V_MPEG4/ISO/AVC
Duration : 24 min 15 s
Bit rate : 5 000 kb/s
Width : 1 892 pixels
Height : 1 068 pixels
Display aspect ratio : 16:9
Frame rate mode : Constant
Frame rate : 23.976 (24000/1001) FPS
Color space : YUV
Chroma subsampling : 4:2:0
Bit depth : 8 bits
Scan type : Progressive
Bits/(Pixel*Frame) : 0.103
Stream size : 867 MiB (88%)
Writing library : x264 core 157 r2969 d4099dd
Encoding settings : cabac=1 / ref=16 / deblock=1:0:0 / analyse=0x3:0x133 / me=tesa / subme=11 / psy=1 / psy_rd=1.00:0.00 / mixed_ref=1 / me_range=24 / chroma_me=1 / trellis=2 / 8x8dct=1 / cqm=0 / deadzone=21,11 / fast_pskip=0 / chroma_qp_offset=-2 / threads=12 / lookahead_threads=3 / sliced_threads=0 / nr=0 / decimate=1 / interlaced=0 / bluray_compat=0 / constrained_intra=0 / bframes=16 / b_pyramid=2 / b_adapt=2 / b_bias=0 / direct=3 / weightb=1 / open_gop=0 / weightp=2 / keyint=240 / keyint_min=23 / scenecut=40 / intra_refresh=0 / rc_lookahead=60 / rc=2pass / mbtree=1 / bitrate=5000 / ratetol=1.0 / qcomp=0.60 / qpmin=0 / qpmax=69 / qpstep=4 / cplxblur=20.0 / qblur=0.5 / ip_ratio=1.40 / aq=1:1.00
Default : Yes
Forced : No

Audio
ID : 1
Format : FLAC
Format/Info : Free Lossless Audio Codec
Codec ID : A_FLAC
Duration : 24 min 15 s
Bit rate mode : Variable
Bit rate : 690 kb/s
Channel(s) : 2 channels
Sampling rate : 48.0 kHz
Frame rate : 11.719 FPS (4096 SPF)
Bit depth : 16 bits
Stream size : 120 MiB (12%)
Writing library : libFLAC 1.2.1 (UTC 2007-09-17)
Default : Yes
Forced : No


Screenshots

Grenadier: Hohoemi no Senshi (2004-2005)

Grenadier: Hohoemi no Senshi (2004-2005)

Grenadier: Hohoemi no Senshi (2004-2005)


My publications | Rss Channel