Tags
Language
Tags

Canaan (2009)

Posted By: Lebedev30
Canaan (2009)

Canaan (2009)
BDRip | MKV | 1916x1078 | H264@~10000 Kbps | 13x ~ 24mn | 13x ~1.9 Gb
Japanese FLAC@1765 Kbps | 6 channels | Subtitles: None
Genre: action, gunfights, seinen, violence


Description:
* Based on a bonus scenario written by Nasu Kinoko and designed by Takeuchi Takashi for Chunsoft's visual novel mystery game 428: Fuusa Sareta Shibuya de.

Two years ago, Shibuya was ravaged by a biological terrorist attack using the deadly Ua virus. Oosawa Maria was saved when her father inoculated her against the virus, but is left with partial amnesia from the shock. Now working as a camerawoman, she reunited with her friend Canaan in Shanghai. Canaan, an assassin gifted with synesthesia, is being targeted by the terrorist squad Snake. Meanwhile, numerous groups converge on Shanghai, all after either Canaan or Maria.






01. Evil, Flood-Colored City
02. Worthless Games
03. Trivialities
04. Lingering Sunset
05. Friends
06. Love & Piece
07. Gravestones
08. Voice
09. Flowers of the Past
10. Loss
11. See-Saw
12. The Seasonal Train
13. The Promised Land


General
Format : Matroska
Format version : Version 4 / Version 2
File size : 1.97 GiB
Duration : 23 min 55 s
Overall bit rate mode : Variable
Overall bit rate : 11.8 Mb/s
Encoded date : UTC 2022-01-09 17:08:13
Writing application : mkvmerge v32.0.0 ('Astral Progressions') 64-bit
Writing library : libebml v1.3.7 + libmatroska v1.5.0

Video
ID : 2
Format : AVC
Format/Info : Advanced Video Codec
Format profile : High@L5.1
Format settings : CABAC / 16 Ref Frames
Format settings, CABAC : Yes
Format settings, RefFrames : 16 frames
Codec ID : V_MPEG4/ISO/AVC
Duration : 23 min 55 s
Bit rate : 10 000 kb/s
Width : 1 916 pixels
Height : 1 078 pixels
Display aspect ratio : 16:9
Original display aspect ratio : 16:9
Frame rate mode : Constant
Frame rate : 23.976 (24000/1001) FPS
Color space : YUV
Chroma subsampling : 4:2:0
Bit depth : 8 bits
Scan type : Progressive
Bits/(Pixel*Frame) : 0.202
Stream size : 1.67 GiB (85%)
Writing library : x264 core 157 r2969 d4099dd
Encoding settings : cabac=1 / ref=16 / deblock=1:0:0 / analyse=0x3:0x133 / me=tesa / subme=11 / psy=1 / psy_rd=1.00:0.00 / mixed_ref=1 / me_range=24 / chroma_me=1 / trellis=2 / 8x8dct=1 / cqm=0 / deadzone=21,11 / fast_pskip=0 / chroma_qp_offset=-2 / threads=12 / lookahead_threads=3 / sliced_threads=0 / nr=0 / decimate=1 / interlaced=0 / bluray_compat=0 / constrained_intra=0 / bframes=16 / b_pyramid=2 / b_adapt=2 / b_bias=0 / direct=3 / weightb=1 / open_gop=0 / weightp=2 / keyint=240 / keyint_min=23 / scenecut=40 / intra_refresh=0 / rc_lookahead=60 / rc=2pass / mbtree=1 / bitrate=10000 / ratetol=1.0 / qcomp=0.60 / qpmin=0 / qpmax=69 / qpstep=4 / cplxblur=20.0 / qblur=0.5 / ip_ratio=1.40 / aq=1:1.00
Default : Yes
Forced : No

Audio
ID : 1
Format : FLAC
Format/Info : Free Lossless Audio Codec
Codec ID : A_FLAC
Duration : 23 min 55 s
Bit rate mode : Variable
Bit rate : 1 765 kb/s
Channel(s) : 6 channels
Sampling rate : 48.0 kHz
Frame rate : 11.719 FPS (4096 SPF)
Bit depth : 16 bits
Stream size : 302 MiB (15%)
Writing library : libFLAC 1.2.1 (UTC 2007-09-17)
Default : Yes
Forced : No

Menu
00:00:00.000 : :Chapter 01
00:01:30.023 : :Chapter 02
00:11:49.041 : :Chapter 03
00:22:09.995 : :Chapter 04
00:23:40.018 : :Chapter 05


Screenshots

Canaan (2009)

Canaan (2009)

Canaan (2009)


My publications | Rss Channel