Subcategories

Silicon Valley S03 (2016)

Posted By: a4s
Silicon Valley S03 (2016)

Silicon Valley S03 (2016)
HDRip | AVI / XviD@1500 kb/s | 720x400 | 10x30mn | 10x360 MB
Audio: English: AC3, 192 kb/s (2 ch)
HDTVRip 720p | MKV / AVC@3800 kb/s | 1280x718 | 10x30mn | 10x1.00 GB
Audio: English: AC3, 384 kb/s (6 ch) | Subtiltes: English (full)
Genre: Comedy

In the high-tech gold rush of modern Silicon Valley, the people most qualified to succeed are the least capable of handling success. A comedy partially inspired by Mike Judge's own experiences as a Silicon Valley engineer in the late 1980s.

HDRip

General
Complete name : Silicon.Valley.S03E01.HDTVRip.DD2.0.XviD.avi
Format : AVI
Format/Info : Audio Video Interleave
File size : 384 MiB
Duration : 31mn 32s
Overall bit rate : 1 701 Kbps
Writing application : VirtualDubMod 1.5.10.2 (build 2542/release)
Writing library : VirtualDubMod build 2542/release

Video
ID : 0
Format : MPEG-4 Visual
Format profile : Advanced Simple@L5
Format settings, BVOP : 2
Format settings, QPel : No
Format settings, GMC : No warppoints
Format settings, Matrix : Default (MPEG)
Codec ID : XVID
Codec ID/Hint : XviD
Duration : 31mn 32s
Bit rate : 1 500 Kbps
Width : 720 pixels
Height : 400 pixels
Display aspect ratio : 16:9
Frame rate : 23.976 fps
Color space : YUV
Chroma subsampling : 4:2:0
Bit depth : 8 bits
Scan type : Progressive
Compression mode : Lossy
Bits/(Pixel*Frame) : 0.217
Stream size : 338 MiB (88%)
Writing library : XviD 67

Audio
ID : 1
Format : AC-3
Format/Info : Audio Coding 3
Mode extension : CM (complete main)
Format settings, Endianness : Big
Codec ID : 2000
Duration : 31mn 32s
Bit rate mode : Constant
Bit rate : 192 Kbps
Channel(s) : 2 channels
Channel positions : Front: L R
Sampling rate : 48.0 KHz
Compression mode : Lossy
Stream size : 43.3 MiB (11%)
Alignment : Split accross interleaves
Interleave, duration : 42 ms (1.00 video frame)
Interleave, preload duration : 500 ms



Silicon Valley S03 (2016)

Silicon Valley S03 (2016)

Silicon Valley S03 (2016)

Silicon Valley S03 (2016)


HDTVRip 720p

General
Unique ID : 209159346252019400708843692557023195390 (0x9D5A9FF384503896B4C39B67B69230FE)
Complete name : Silicon.Valley.S03E01.720p.HDTV.x264.DD5.1.mkv
Format : Matroska
Format version : Version 4 / Version 2
File size : 986 MiB
Duration : 31mn 32s
Overall bit rate : 4 371 Kbps
Encoded date : UTC 2016-06-23 19:01:54
Writing application : mkvmerge v8.3.0 ('Over the Horizon') 64bit
Writing library : libebml v1.3.1 + libmatroska v1.4.2

Video
ID : 1
Format : AVC
Format/Info : Advanced Video Codec
Format profile : High@L4.1
Format settings, CABAC : Yes
Format settings, ReFrames : 8 frames
Codec ID : V_MPEG4/ISO/AVC
Duration : 31mn 32s
Bit rate : 3 900 Kbps
Width : 1 280 pixels
Height : 718 pixels
Display aspect ratio : 16:9
Frame rate mode : Constant
Frame rate : 23.976 fps
Color space : YUV
Chroma subsampling : 4:2:0
Bit depth : 8 bits
Scan type : Progressive
Bits/(Pixel*Frame) : 0.177
Stream size : 880 MiB (89%)
Writing library : x264 core 148 r2692 64f4e24
Encoding settings : cabac=1 / ref=8 / deblock=1:-2:-2 / analyse=0x3:0x113 / me=umh / subme=11 / psy=1 / psy_rd=1.00:0.05 / mixed_ref=1 / me_range=32 / chroma_me=1 / trellis=2 / 8x8dct=1 / cqm=0 / deadzone=21,11 / fast_pskip=0 / chroma_qp_offset=-4 / threads=6 / lookahead_threads=1 / sliced_threads=0 / nr=0 / decimate=1 / interlaced=0 / bluray_compat=0 / constrained_intra=0 / bframes=8 / b_pyramid=2 / b_adapt=2 / b_bias=0 / direct=1 / weightb=1 / open_gop=0 / weightp=2 / keyint=240 / keyint_min=22 / scenecut=40 / intra_refresh=0 / rc_lookahead=40 / rc=crf / mbtree=0 / crf=17.0 / qcomp=0.60 / qpmin=0 / qpmax=69 / qpstep=4 / vbv_maxrate=50000 / vbv_bufsize=62500 / crf_max=0.0 / nal_hrd=none / filler=0 / ip_ratio=1.40 / pb_ratio=1.30 / aq=2:0.90
Language : English
Default : Yes
Forced : No

Audio
ID : 2
Format : AC-3
Format/Info : Audio Coding 3
Mode extension : CM (complete main)
Format settings, Endianness : Big
Codec ID : A_AC3
Duration : 31mn 32s
Bit rate mode : Constant
Bit rate : 384 Kbps
Channel(s) : 6 channels
Channel positions : Front: L C R, Side: L R, LFE
Sampling rate : 48.0 KHz
Compression mode : Lossy
Stream size : 86.6 MiB (9%)
Language : English
Default : Yes
Forced : No

Text
ID : 3
Format : UTF-8
Codec ID : S_TEXT/UTF8
Codec ID/Info : UTF-8 Plain Text
Language : English
Default : No
Forced : No



Silicon Valley S03 (2016)

Silicon Valley S03 (2016)

Silicon Valley S03 (2016)

Silicon Valley S03 (2016)
http://nitroflare.com/view/681C329ACCDE02D/Silicon.Valley.S03E01.HDTVRip.DD2.0.XviD.avi
http://nitroflare.com/view/825B5DDE93AAA2C/Silicon.Valley.S03E02.HDTVRip.DD2.0.XviD.avi
http://nitroflare.com/view/F177C30602B366C/Silicon.Valley.S03E03.HDTVRip.DD2.0.XviD.avi
http://nitroflare.com/view/E68483A7843A86B/Silicon.Valley.S03E04.HDTVRip.DD2.0.XviD.avi
http://nitroflare.com/view/DAE4969E05B3CBD/Silicon.Valley.S03E05.HDTVRip.DD2.0.XviD.avi
http://nitroflare.com/view/D37A8D21A3B126C/Silicon.Valley.S03E06.HDTVRip.DD2.0.XviD.avi
http://nitroflare.com/view/3F1AECCB8435EF3/Silicon.Valley.S03E07.HDTVRip.DD2.0.XviD.avi
http://nitroflare.com/view/265FBFABA6C9BF6/Silicon.Valley.S03E08.HDTVRip.DD2.0.XviD.avi
http://nitroflare.com/view/7EE80B1899F67EA/Silicon.Valley.S03E09.HDTVRip.DD2.0.XviD.avi
http://nitroflare.com/view/82A75B764418E2B/Silicon.Valley.S03E10.HDTVRip.DD2.0.XviD.avi

http://nitroflare.com/view/1F06FB225640E8D/Silicon.Valley.S03.Eng.Sub.rar

http://nitroflare.com/view/33A039F53F589C7/Silicon.Valley.S03E01.720p.HDTV.x264.DD5.1.mkv
http://nitroflare.com/view/EC74F539FC55CDD/Silicon.Valley.S03E02.720p.HDTV.x264.DD5.1.mkv
http://nitroflare.com/view/4C016F35AB2F892/Silicon.Valley.S03E03.720p.HDTV.x264.DD5.1.mkv
http://nitroflare.com/view/362767CA333379D/Silicon.Valley.S03E04.720p.HDTV.x264.DD5.1.mkv
http://nitroflare.com/view/FA396574B292F92/Silicon.Valley.S03E05.720p.HDTV.x264.DD5.1.mkv
http://nitroflare.com/view/A62816286ED1673/Silicon.Valley.S03E06.720p.HDTV.x264.DD5.1.mkv
http://nitroflare.com/view/B8842060EA13E48/Silicon.Valley.S03E07.720p.HDTV.x264.DD5.1.mkv
http://nitroflare.com/view/2C75C0DD51C27A9/Silicon.Valley.S03E08.720p.HDTV.x264.DD5.1.mkv
http://nitroflare.com/view/02811BE3740A002/Silicon.Valley.S03E09.720p.HDTV.x264.DD5.1.mkv
http://nitroflare.com/view/124075D22A6981F/Silicon.Valley.S03E10.720p.HDTV.x264.DD5.1.mkv