Subcategories

The Notorious Bettie Page (2005)

Posted By: a_l_chemist
The Notorious Bettie Page (2005)

The Notorious Bettie Page (2005)
HDTVRip | AVI | XviD | 720x404, 23.976 fps, 2002 kbps | 01:30:41 | 1,47 GB
English: MP3, 2ch, 192 kbps | Subs: English (srt)
Genre: Biography | Drama

The Notorious Bettie Page is a 2005 American biographical film directed by Mary Harron. The screenplay by Harron and Guinevere Turner focuses on 1950s pinup and bondage model Bettie Page. The movie starring Gretchen Mol, Chris Bauer, Jared Harris, Lili Taylor and David Strathairn.

The Notorious Bettie Page (2005)

Plot: Bettie Page is an ambitious, naïve, and devout young Christian woman who longs to leave Nashville, Tennessee following a childhood of sexual abuse, a failed wartime marriage, and a gang rape. In 1949 she departs for New York City, where she enrolls in an acting class. Amateur photographer Jerry Tibbs discovers her walking on the beach at Coney Island and she agrees to model for him. He suggests she restyle her hair with the bangs that would become her trademark. Bettie becomes a favorite of nature photographers (including Bunny Yeager, who films her posing with two leopards), and she has no hesitation about removing her clothes for the photographers when asked. Before long images of the shapely brunette reach brother-and-sister entrepreneurs Paula and Irving Klaw, who run a respectable business selling movie stills and memorabilia but also deal with fetish photos, magazines, and 8- and 16-millimeter films for additional income. Their top model Maxie takes Bettie under her wing, and she soon finds herself wearing leather corsets and thigh-high boots while wielding whips and chains for photographer John Willie, frequently at the request of Little John, a mild-mannered attorney with unusual tastes. Bettie is innocently unaware of the sexual nature of the images that rapidly are making her a star in the underground world of bondage aficionados. Bettie is called to testify before a 1955 hearing, headed by Senator Estes Kefauver, investigating the effects of pornography on American youth. Though she waits patiently for 12 hours to answer the committee's questions, Kefauver (for reasons unknown) decides to not bring her before the committee and dismisses her without an explanation. When it becomes apparent that casting directors are more interested in her notoriety than in any acting talent she might possess, Bettie heads to Miami Beach. Drifting along with limited career prospects and a virtually nonexistent social life, she stumbles upon a small church, walks inside and embraces Jesus Christ during a religious service.
–from wikipedia
…..IMDb | Rovi
The Notorious Bettie Page (2005)

The Notorious Bettie Page (2005)

The Notorious Bettie Page (2005)

The Notorious Bettie Page (2005)

The Notorious Bettie Page (2005)

General
Name : The Notorious Bettie Page.avi
Format : AVI
Format/Info : Audio Video Interleave
File size : 1.40 GiB
Duration : 1h 30mn
Overall bit rate : 2 203 Kbps
Movie name : The Notorious Bettie Page
Writing application : VirtualDubMod 1.5.10.2 (build 2540/release)
Writing library : VirtualDubMod build 2540/release

Video
ID : 0
Format : MPEG-4 Visual
Format profile : Advanced Simple@L5
Format settings, BVOP : 2
Format settings, QPel : No
Format settings, GMC : No warppoints
Format settings, Matrix : Default (MPEG)
Codec ID : XVID
Codec ID/Hint : XviD
Duration : 1h 30mn
Bit rate : 2 002 Kbps
Width : 720 pixels
Height : 404 pixels
Display aspect ratio : 16:9
Frame rate : 23.976 fps
Color space : YUV
Chroma subsampling : 4:2:0
Bit depth : 8 bits
Scan type : Progressive
Compression mode : Lossy
Bits/(Pixel*Frame) : 0.287
Stream size : 1.27 GiB (91%)
Writing library : XviD 1.1.2 (UTC 2006-11-01)

Audio
ID : 1
Format : MPEG Audio
Format version : Version 1
Format profile : Layer 3
Mode : Joint stereo
Mode extension : MS Stereo
Codec ID : 55
Codec ID/Hint : MP3
Duration : 1h 30mn
Bit rate mode : Constant
Bit rate : 192 Kbps
Channel(s) : 2 channels
Sampling rate : 48.0 KHz
Compression mode : Lossy
Stream size : 124 MiB (9%)
Alignment : Aligned on interleaves
Interleave, duration : 42 ms (1.00 video frame)
Interleave, preload duration : 504 ms

Download:

Filesonic
List of links

Wupload
List of links

Fileserve
List of links

Interchangeable links

My blog on AvaxHome

.: No Mirrors Please :.