Subcategories

Bettie Page Reveals All (2012)

Posted By: Tutorial
Bettie Page Reveals All (2012)

Bettie Page Reveals All (2012)
1080p BluRay | 1920 x 1080 | .MKV/AVC @ 9700 Kbps | 1h 41mn | English DTS 1510 kbps, 6 channels | 7.94 GB
Genre: Documentary

The world's greatest pinup model and cult icon, Bettie Page, recounts the true story of how her free expression overcame government witch-hunts to help launch America's sexual revolution.
Director: Mark Mori
Writer: Douglas Miller
Stars: Bettie Page, Hugh M. Hefner, Olivia de Berardinis
More info: IMDB

General
Unique ID : 211415575553708225464475005118461024602 (0x9F0D28A4F22745E29EE14479B43C995A)
Complete name : bettie.page.reveals.all.mkv
Format : Matroska
Format version : Version 4 / Version 2
File size : 7.94 GiB
Duration : 1h 41mn
Overall bit rate : 11.2 Mbps
Encoded date : UTC 2014-10-11 19:09:33
Writing application : mkvmerge v6.2.0 ('Promised Land') built on Apr 28 2013 12:22:01
Writing library : libebml v1.3.0 + libmatroska v1.4.0

Video
ID : 1
Format : AVC
Format/Info : Advanced Video Codec
Format profile : High@L4.1
Format settings, CABAC : Yes
Format settings, ReFrames : 4 frames
Codec ID : V_MPEG4/ISO/AVC
Duration : 1h 41mn
Bit rate : 9 700 Kbps
Width : 1 920 pixels
Height : 1 080 pixels
Display aspect ratio : 16:9
Frame rate : 23.976 fps
Color space : YUV
Chroma subsampling : 4:2:0
Bit depth : 8 bits
Scan type : Progressive
Bits/(Pixel*Frame) : 0.195
Stream size : 6.72 GiB (85%)
Writing library : x264 core 142 r2479 dd79a61
Encoding settings : cabac=1 / ref=4 / deblock=1:0:0 / analyse=0x3:0x133 / me=umh / subme=8 / psy=1 / psy_rd=1.00:0.00 / mixed_ref=1 / me_range=16 / chroma_me=1 / trellis=1 / 8x8dct=1 / cqm=0 / deadzone=21,11 / fast_pskip=0 / chroma_qp_offset=-2 / threads=20 / lookahead_threads=3 / sliced_threads=0 / nr=0 / decimate=1 / interlaced=0 / bluray_compat=0 / constrained_intra=0 / bframes=3 / b_pyramid=2 / b_adapt=2 / b_bias=0 / direct=3 / weightb=1 / open_gop=0 / weightp=2 / keyint=240 / keyint_min=24 / scenecut=40 / intra_refresh=0 / rc_lookahead=50 / rc=2pass / mbtree=1 / bitrate=9700 / ratetol=1.0 / qcomp=0.60 / qpmin=0 / qpmax=69 / qpstep=4 / cplxblur=20.0 / qblur=0.5 / ip_ratio=1.40 / aq=1:1.00
Language : English
Default : Yes
Forced : No

Audio
ID : 2
Format : DTS
Format/Info : Digital Theater Systems
Codec ID : A_DTS
Duration : 1h 41mn
Bit rate mode : Constant
Bit rate : 1 510 Kbps
Channel(s) : 6 channels
Channel positions : Front: L C R, Side: L R, LFE
Sampling rate : 48.0 KHz
Bit depth : 24 bits
Compression mode : Lossy
Stream size : 1.07 GiB (13%)
Default : Yes
Forced : No

Menu
00:00:00.000 : en:00:00:00.000
00:09:04.961 : en:00:09:04.961
00:20:23.514 : en:00:20:23.514
00:30:10.434 : en:00:30:10.434
00:39:28.074 : en:00:39:28.074
00:52:51.126 : en:00:52:51.126
00:59:35.363 : en:00:59:35.363
01:09:58.861 : en:01:09:58.861
01:20:25.446 : en:01:20:25.446
01:29:49.217 : en:01:29:49.217
01:39:02.645 : en:01:39:02.645
Screenshots

Bettie Page Reveals All (2012)

Bettie Page Reveals All (2012)

Bettie Page Reveals All (2012)

Bettie Page Reveals All (2012)


Bettie Page Reveals All (2012)