Subcategories

PBS American Masters - Jeff Bridges: The Dude Abides (2011)

Posted By: notbanned
PBS American Masters - Jeff Bridges: The Dude Abides (2011)

PBS American Masters - Jeff Bridges: The Dude Abides (2011)
HDTV | 1280x720 | .MKV/AVC @ 2771 Kbps | 1h 21mn | Audio: English AC3 384 kbps, 6 channels | Subs: English | 1.81 GiB
Genre: Documentary

Called "the most natural and least self-conscious screen actor that has ever lived" by critic Pauline Kael, Jeff Bridges has been plying his craft most of his life. With a first role as an infant in his mother Dorothy's arms and a childhood television debut in his father Lloyd's television series Sea Hunt, he burst onto the silver screen in The Last Picture Show in 1971 and was immediately recognized with a Best Supporting Actor nomination. He has created original and memorable characters in notable films since that time. To name but a few – Heaven's Gate, Starman, Jagged Edge, The Fisher King, Fearless, Wild Bill, The Fabulous Baker Boys, The Big Lebowski, and his 2010 Oscar-winning best actor in Crazy Heart. He is an exceptional musician, an artist, a photographer, an occasional vintner and a story teller extraordinaire. He helped found the End Hunger Network in 1983 and continues to work with Share Our Strength, a foundation trying to eradicate childhood hunger. Known for taking on-set still photographs of cast and crew during all of his recent movies, Bridges puts together an original album after wrapping and presents a copy to everyone. His photographs have been shown in galleries in Los Angeles, New York and London. He uses the Widelux camera, pioneered in France, and wrote about it in his 2003 volume Pictures. "It is a fickle mistress … it has arbitrariness to it, a capricious quality. I like that. It's something I aspire to in my work … a willingness to receive what's there in the moment … getting out of the way seems to be one of the main tasks for me as an artist."


General
Unique ID : 192343351351128267285797816983374176532 (0x90B3FB64295880DEBBF6D298A4FEA114)
Complete name : PBS.American.Masters.Jeff.Bridges.The.Dude.Abides.mkv
Format : Matroska
Format version : Version 4 / Version 2
File size : 1.81 GiB
Duration : 1h 21mn
Overall bit rate : 3 158 Kbps

Video
ID : 1
Format : AVC
Format/Info : Advanced Video Codec
Format profile : High@L3.1
Format settings, CABAC : Yes
Format settings, ReFrames : 4 frames
Codec ID : V_MPEG4/ISO/AVC
Duration : 1h 21mn
Bit rate : 2 771 Kbps
Width : 1 280 pixels
Height : 720 pixels
Display aspect ratio : 16:9
Frame rate mode : Constant
Frame rate : 29.970 fps
Color space : YUV
Chroma subsampling : 4:2:0
Bit depth : 8 bits
Scan type : Progressive
Bits/(Pixel*Frame) : 0.100
Stream size : 1.55 GiB (86%)
Writing library : x264 core 107 r1745 4785e8e
Encoding settings : cabac=1 / ref=4 / deblock=1:0:0 / analyse=0x3:0x113 / me=umh / subme=9 / psy=1 / psy_rd=1.00:0.00 / mixed_ref=1 / me_range=16 / chroma_me=1 / trellis=0 / 8x8dct=1 / cqm=0 / deadzone=21,11 / fast_pskip=1 / chroma_qp_offset=-2 / threads=12 / sliced_threads=0 / nr=0 / decimate=1 / interlaced=0 / constrained_intra=0 / bframes=4 / b_pyramid=2 / b_adapt=2 / b_bias=0 / direct=3 / weightb=1 / open_gop=0 / weightp=2 / keyint=250 / keyint_min=25 / scenecut=40 / intra_refresh=0 / rc_lookahead=40 / rc=2pass / mbtree=1 / bitrate=2771 / ratetol=1.0 / qcomp=0.60 / qpmin=10 / qpmax=51 / qpstep=4 / cplxblur=20.0 / qblur=0.5 / ip_ratio=1.40 / aq=1:1.00
Default : Yes
Forced : No

Audio
ID : 2
Format : AC-3
Format/Info : Audio Coding 3
Mode extension : CM (complete main)
Format settings, Endianness : Big
Codec ID : A_AC3
Duration : 1h 21mn
Bit rate mode : Constant
Bit rate : 384 Kbps
Channel(s) : 6 channels
Channel positions : Front: L C R, Side: L R, LFE
Sampling rate : 48.0 KHz
Compression mode : Lossy
Stream size : 225 MiB (12%)
Language : English
Default : Yes
Forced : No

Text
ID : 3
Format : UTF-8
Codec ID : S_TEXT/UTF8
Codec ID/Info : UTF-8 Plain Text
Default : Yes
Forced : No


Screenshots:

PBS American Masters - Jeff Bridges: The Dude Abides (2011)

PBS American Masters - Jeff Bridges: The Dude Abides (2011)

PBS American Masters - Jeff Bridges: The Dude Abides (2011)