Subcategories

Lepa sela lepo gore / Pretty Village, Pretty Flame (1996) + [Extras]

Posted By: Rare-1
Lepa sela lepo gore / Pretty Village, Pretty Flame (1996) + [Extras]

Lepa sela lepo gore / Pretty Village, Pretty Flame (1996) + [Extras]
DVDRip | MKV | 696 x 406 | AVC @ 1900 Kbps | 88 min | 1.97 Gb / 640 MB
Audio: Serbian AC3 2.0 @ 192 Kbps | Subs: English, Spanish, German (embedded)
Genre: Drama, War | Serbia and Montenegro

At the Belgrade army hospital, casualties of Bosnian civil war are treated. In the hospital they remember their youth and the war. Two young boys, Halil, a Muslim, and Milan, a Serb, have grown up together near a deserted tunnel linking the Yugoslav cities of Belgrade and Zagreb. They never dare go inside, as they believe an ogre resides there. Twelve years later, during the Bosnian civil war, Milan, who is trapped in the tunnel with his troop, and Halil, find themselves on opposing sides, fatefully heading toward confrontation.

IMDB 8.6/10 from 8642 users
Director: Srdjan Dragojevic
Writer: Vanja Bulic (story), Srdjan Dragojevic (dialogue), Srdjan Dragojevic (screenplay), Srdjan Dragojevic (story), Biljana Maksic (screenplay), Nikola Pejakovic (dialogue)
Actors: Dragan Bjelogrlic, Nikola Kojo, Dragan Maksimovic, Zoran Cvijanovic
Rated: N/A
Runtime: 88 min

At the Belgrade army hospital, casualties of Bosnian civil war are treated. In the hospital they remember their youth and the war. Two young boys, Halil, a Muslim, and Milan, a Serb, have grown up together near a deserted tunnel linking the Yugoslav cities of Belgrade and Zagreb. They never dare go inside, as they believe an ogre resides there. Twelve years later, during the Bosnian civil war, Milan, who is trapped in the tunnel with his troop, and Halil, find themselves on opposing sides, fatefully heading toward confrontation.

The plot, inspired by real life events that took place in the opening stages of the Bosnian War, tells a story about small group of Serb soldiers trapped in a tunnel by a Bosniak force. The film's screenplay is based on an article written by Vanja Bulić for Duga magazine about the actual event. Through flashbacks that describe the pre-war lives of each trapped soldier, the film describes life in pre-war Yugoslavia and tries to give a view as to why former neighbours and friends turned on each other.

Following the success of the movie, Bulić wrote a novel named Tunel that's essentially an expanded version of his magazine article.

Review:
Though cloaked in explosive black humor, the serious anti-war message of this bitterly satirical and politically charged Yugoslav film cuts like shrapnel. Set in Bosnia during 1980 and 1992 (like a pendulum, the time frame swings back and forth), and allegedly based upon a true story, the plot focuses upon the longtime friendship of Muslim Halil, and Serbian Milan. While growing up during the '80s, the two often hung out near an abandoned tunnel. Though curious, the boys were too frightened by the mythical boy-eating ogres said to venture within. The story moves to 1992 and begins as the war between the Serbs and the Muslim ignites in horrible violence and the friends find themselves forced into becoming enemies. Meanwhile, a beautiful American journalist is captured by the Serbs. The film opens with a shot of European and American dignitaries smiling broadly as they inaugurate the new Brotherhood and Unity tunnel that links Zagreb and Belgrade. Later in the film, it will become the scene of horror when Serbian soldiers are trapped by Muslims within. With nothing to do but wait for death, the trapped soldiers amuse themselves by staging allegorical circus acts.

Awards:
Won European Jury Award at the Festival d'Angers (1997)
Won Telcipro Award at the Festival d'Angers (1997)
Won Distinguished Award of Merit at the Lauderdale International Film Festival (1996)
Won Bronze Horse at the Stockholm International Film Festival (1996)
Won International Jury Award at the São Paulo International Film Festival (1996)
Won Audience Award at the Thessaloniki Film Festival (1996)
Nominated for Golden Alexander at the Thessaloniki Film Festival (1996)

Lepa sela lepo gore / Pretty Village, Pretty Flame (1996) + [Extras]

Lepa sela lepo gore / Pretty Village, Pretty Flame (1996) + [Extras]

Lepa sela lepo gore / Pretty Village, Pretty Flame (1996) + [Extras]

Lepa sela lepo gore / Pretty Village, Pretty Flame (1996) + [Extras]


Lepa sela lepo gore / Pretty Village, Pretty Flame (1996) + [Extras]


More Screenshots:

Lepa sela lepo gore / Pretty Village, Pretty Flame (1996) + [Extras]



General
Unique ID : 226436607520417125784901509979765866441 (0xAA5A1AB2F09026B2BCDE10BB70C9FFC9)
Complete name : F:\Lepa sela lepo gore AKA Pretty Village, Pretty Flame (1996)\Lepa sela lepo gore AKA Pretty Village, Pretty Flame (1996) KG.mkv
Format : Matroska
Format version : Version 1
File size : 1.97 GiB
Duration : 2h 14mn
Overall bit rate : 2 095 Kbps
Encoded date : UTC 2015-02-07 14:13:49
Writing application : mkvmerge v2.4.1 ('Use Me') built on Dec 5 2008 18:30:05
Writing library : libebml v0.7.7 + libmatroska v0.8.1
DURATION : 02:14:43.959000000
NUMBER_OF_FRAMES : 194015
NUMBER_OF_BYTES : 1919969948
_STATISTICS_WRITING_APP : mkvmerge v7.0.0 ('Where We Going') 32bit built on Jun 9 2014 15:08:34
_STATISTICS_WRITING_DATE_UTC : 2015-02-07 08:00:51
_STATISTICS_TAGS : BPS DURATION NUMBER_OF_FRAMES NUMBER_OF_BYTES

Video
ID : 1
Format : AVC
Format/Info : Advanced Video Codec
Format profile : High@L3.1
Format settings, CABAC : Yes
Format settings, ReFrames : 5 frames
Codec ID : V_MPEG4/ISO/AVC
Duration : 2h 14mn
Bit rate : 1 900 Kbps
Width : 696 pixels
Height : 406 pixels
Display aspect ratio : 1.85:1
Original display aspect ratio : 3.048
Frame rate mode : Constant
Frame rate : 24.000 fps
Color space : YUV
Chroma subsampling : 4:2:0
Bit depth : 8 bits
Scan type : Progressive
Bits/(Pixel*Frame) : 0.280
Stream size : 1.75 GiB (89%)
Writing library : x264 core 142 r2431 ac76440
Encoding settings : cabac=1 / ref=5 / deblock=1:-3:-3 / analyse=0x3:0x113 / me=umh / subme=9 / psy=1 / psy_rd=1.00:0.15 / mixed_ref=1 / me_range=28 / chroma_me=1 / trellis=1 / 8x8dct=1 / cqm=0 / deadzone=21,11 / fast_pskip=1 / chroma_qp_offset=-3 / threads=3 / lookahead_threads=1 / sliced_threads=0 / nr=0 / decimate=0 / interlaced=0 / bluray_compat=0 / constrained_intra=0 / bframes=6 / b_pyramid=2 / b_adapt=2 / b_bias=0 / direct=3 / weightb=1 / open_gop=0 / weightp=2 / keyint=240 / keyint_min=24 / scenecut=40 / intra_refresh=0 / rc_lookahead=60 / rc=2pass / mbtree=1 / bitrate=1900 / ratetol=3.0 / qcomp=0.60 / qpmin=10 / qpmax=51 / qpstep=4 / cplxblur=20.0 / qblur=0.5 / vbv_maxrate=14000 / vbv_bufsize=14000 / nal_hrd=none / filler=0 / ip_ratio=1.40 / aq=1:1.00
Default : Yes
Forced : No

Audio
ID : 2
Format : AC-3
Format/Info : Audio Coding 3
Mode extension : CM (complete main)
Format settings, Endianness : Big
Codec ID : A_AC3
Duration : 2h 14mn
Bit rate mode : Constant
Bit rate : 192 Kbps
Channel(s) : 2 channels
Channel positions : Front: L R
Sampling rate : 48.0 KHz
Bit depth : 16 bits
Compression mode : Lossy
Stream size : 185 MiB (9%)
Language : Serbian
Default : Yes
Forced : No

Text #1
ID : 3
Format : UTF-8
Codec ID : S_TEXT/UTF8
Codec ID/Info : UTF-8 Plain Text
Language : English
Default : Yes
Forced : No

Text #2
ID : 4
Format : UTF-8
Codec ID : S_TEXT/UTF8
Codec ID/Info : UTF-8 Plain Text
Language : German
Default : No
Forced : No

Text #3
ID : 5
Format : UTF-8
Codec ID : S_TEXT/UTF8
Codec ID/Info : UTF-8 Plain Text
Language : Spanish
Default : No
Forced : No


Many Thanks to Original uploader.


For More Rare Movies Check out my blog!


Download Links :

No Mirrors Please