Subcategories

Free State of Jones (2016)

Posted By: JohnSmith
Free State of Jones (2016)

Free State of Jones (2016)
BDRip | MKV / AVC@1103 kb/s | 720x388 | 2h 19mn | 1.23 GB | English: AC3, 128 kb/s (2 ch)
BRRip | MKV / AVC@1645 kb/s | 720x384 | 2h 19mn | 2.05 GB | English: AC3, 448 kb/s (6 ch)
BDRip 720p | MKV / AVC@5500 kb/s | 1280x690 | 2h 19mn | 6.85 GB | English: DTS, 1509 kb/s (6 ch)
BDRip 1080p | MKV / AVC@12.5 Mb/s | 1920x1036 | 2h 19mn | 13.7 GB | English: DTS, 1509 kb/s (6 ch)
Genre: Action | Biography | Drama | History | War

A disillusioned Confederate army deserter returns to Mississippi and leads a militia of fellow deserters, runaway slaves, and women in an uprising against the corrupt local Confederate government.




General
Unique ID : 225339366515784946144613436144224438530 (0xA986C88A6CD63490BCA259A468620902)
Complete name : C:\Free.State.of.Jones.2016.BDRip.mkv
Format : Matroska
Format version : Version 4 / Version 2
File size : 1.23 GiB
Duration : 2h 19mn
Overall bit rate : 1 256 Kbps
Movie name : Medusa @ HDChina
Encoded date : UTC 2016-09-10 01:11:06
Writing application : mkvmerge v8.3.0 ('Over the Horizon') 64bit
Writing library : libebml v1.3.1 + libmatroska v1.4.2

Video
ID : 1
Format : AVC
Format/Info : Advanced Video Codec
Format profile : High@L3.1
Format settings, CABAC : Yes
Format settings, ReFrames : 4 frames
Codec ID : V_MPEG4/ISO/AVC
Duration : 2h 19mn
Bit rate : 1 103 Kbps
Width : 720 pixels
Height : 388 pixels
Display aspect ratio : 1.85:1
Frame rate mode : Constant
Frame rate : 23.976 fps
Color space : YUV
Chroma subsampling : 4:2:0
Bit depth : 8 bits
Scan type : Progressive
Bits/(Pixel*Frame) : 0.165
Stream size : 1.08 GiB (88%)
Writing library : x264 core 144 r2525 40bb568
Encoding settings : cabac=1 / ref=2 / deblock=1:0:0 / analyse=0x3:0x113 / me=hex / subme=4 / psy=1 / psy_rd=1.00:0.00 / mixed_ref=0 / me_range=16 / chroma_me=1 / trellis=1 / 8x8dct=1 / cqm=0 / deadzone=21,11 / fast_pskip=1 / chroma_qp_offset=0 / threads=9 / lookahead_threads=2 / sliced_threads=0 / nr=0 / decimate=1 / interlaced=0 / bluray_compat=0 / constrained_intra=0 / bframes=3 / b_pyramid=2 / b_adapt=1 / b_bias=0 / direct=1 / weightb=1 / open_gop=0 / weightp=1 / keyint=240 / keyint_min=24 / scenecut=40 / intra_refresh=0 / rc_lookahead=20 / rc=crf / mbtree=1 / crf=19.0 / qcomp=0.60 / qpmin=0 / qpmax=69 / qpstep=4 / vbv_maxrate=17500 / vbv_bufsize=17500 / crf_max=0.0 / nal_hrd=none / filler=0 / ip_ratio=1.40 / aq=1:1.00
Default : Yes
Forced : No
Color range : Limited
Color primaries : BT.709
Transfer characteristics : BT.709
Matrix coefficients : BT.709
DURATION : 02:19:55.346000000
NUMBER_OF_FRAMES : 201287
NUMBER_OF_BYTES : 1182332330
_STATISTICS_WRITING_APP : mkvmerge v8.3.0 ('Over the Horizon') 64bit
_STATISTICS_WRITING_DATE_UT : 2016-09-10 01:11:06
_STATISTICS_TAGS : BPS DURATION NUMBER_OF_FRAMES NUMBER_OF_BYTES

Audio
ID : 2
Format : AC-3
Format/Info : Audio Coding 3
Format profile : Dolby Digital
Mode extension : CM (complete main)
Format settings, Endianness : Big
Codec ID : A_AC3
Duration : 2h 19mn
Bit rate mode : Constant
Bit rate : 128 Kbps
Channel(s) : 2 channels
Channel positions : Front: L R
Sampling rate : 48.0 KHz
Compression mode : Lossy
Delay relative to video : -5ms
Stream size : 128 MiB (10%)
Title : Stereo
Language : English
Default : Yes
Forced : No
DURATION : 02:19:55.296000000
NUMBER_OF_FRAMES : 262353
NUMBER_OF_BYTES : 134324736
_STATISTICS_WRITING_APP : mkvmerge v8.3.0 ('Over the Horizon') 64bit
_STATISTICS_WRITING_DATE_UT : 2016-09-10 01:11:06
_STATISTICS_TAGS : BPS DURATION NUMBER_OF_FRAMES NUMBER_OF_BYTES





General
Unique ID : 231753037355884146045564154067295943017 (0xAE5A02ED6168F3FFB276AB4AEB983969)
Complete name : C:\Free.State.of.Jones.2016.BRRip.mkv
Format : Matroska
Format version : Version 4 / Version 2
File size : 2.05 GiB
Duration : 2h 19mn
Overall bit rate : 2 095 Kbps
Movie name : Medusa @ HDChina
Encoded date : UTC 2016-09-10 01:09:50
Writing application : mkvmerge v8.3.0 ('Over the Horizon') 64bit
Writing library : libebml v1.3.1 + libmatroska v1.4.2

Video
ID : 1
Format : AVC
Format/Info : Advanced Video Codec
Format profile : Baseline@L3.1
Format settings, CABAC : No
Format settings, ReFrames : 1 frame
Codec ID : V_MPEG4/ISO/AVC
Duration : 2h 19mn
Bit rate : 1 645 Kbps
Width : 720 pixels
Height : 384 pixels
Display aspect ratio : 1.85:1
Frame rate mode : Constant
Frame rate : 23.976 fps
Color space : YUV
Chroma subsampling : 4:2:0
Bit depth : 8 bits
Scan type : Progressive
Bits/(Pixel*Frame) : 0.248
Stream size : 1.57 GiB (77%)
Writing library : x264 core 142 r2479 dd79a61
Encoding settings : cabac=0 / ref=1 / deblock=1:0:0 / analyse=0x1:0x111 / me=hex / subme=2 / psy=1 / psy_rd=1.00:0.00 / mixed_ref=0 / me_range=16 / chroma_me=1 / trellis=0 / 8x8dct=0 / cqm=0 / deadzone=21,11 / fast_pskip=1 / chroma_qp_offset=0 / threads=12 / lookahead_threads=3 / sliced_threads=0 / nr=0 / decimate=1 / interlaced=0 / bluray_compat=0 / constrained_intra=0 / bframes=0 / weightp=0 / keyint=240 / keyint_min=24 / scenecut=40 / intra_refresh=0 / rc_lookahead=10 / rc=2pass / mbtree=1 / bitrate=1645 / ratetol=1.0 / qcomp=0.60 / qpmin=0 / qpmax=69 / qpstep=4 / cplxblur=20.0 / qblur=0.5 / vbv_maxrate=14000 / vbv_bufsize=14000 / nal_hrd=none / filler=0 / ip_ratio=1.40 / aq=1:1.00
Default : Yes
Forced : No
Color range : Limited
Color primaries : BT.709
Transfer characteristics : BT.709
Matrix coefficients : BT.709
DURATION : 02:19:55.346000000
NUMBER_OF_FRAMES : 201287
NUMBER_OF_BYTES : 1726937050
_STATISTICS_WRITING_APP : mkvmerge v8.3.0 ('Over the Horizon') 64bit
_STATISTICS_WRITING_DATE_UT : 2016-09-10 01:09:50
_STATISTICS_TAGS : BPS DURATION NUMBER_OF_FRAMES NUMBER_OF_BYTES

Audio
ID : 2
Format : AC-3
Format/Info : Audio Coding 3
Mode extension : CM (complete main)
Format settings, Endianness : Big
Codec ID : A_AC3
Duration : 2h 19mn
Bit rate mode : Constant
Bit rate : 448 Kbps
Channel(s) : 6 channels
Channel positions : Front: L C R, Side: L R, LFE
Sampling rate : 48.0 KHz
Compression mode : Lossy
Delay relative to video : -5ms
Stream size : 448 MiB (21%)
Title : Surround
Language : English
Default : Yes
Forced : No
DURATION : 02:19:55.328000000
NUMBER_OF_FRAMES : 262354
NUMBER_OF_BYTES : 470138368
_STATISTICS_WRITING_APP : mkvmerge v8.3.0 ('Over the Horizon') 64bit
_STATISTICS_WRITING_DATE_UT : 2016-09-10 01:09:50
_STATISTICS_TAGS : BPS DURATION NUMBER_OF_FRAMES NUMBER_OF_BYTES





General
Unique ID : 177854809960791119412408081006391135662 (0x85CD9726232586B389BE38F1F9D70DAE)
Complete name : A:\Free.State.of.Jones.2016.720p.BDRip.mkv
Format : Matroska
Format version : Version 4 / Version 2
File size : 6.85 GiB
Duration : 2h 19mn
Overall bit rate : 7 013 Kbps
Movie name : Medusa @ HDChina
Encoded date : UTC 2016-09-10 00:50:18
Writing application : mkvmerge v8.3.0 ('Over the Horizon') 64bit
Writing library : libebml v1.3.1 + libmatroska v1.4.2
DURATION : 02:19:55.350000000
NUMBER_OF_FRAMES : 787064
NUMBER_OF_BYTES : 1583572768
_STATISTICS_WRITING_APP : mkvmerge v8.3.0 ('Over the Horizon') 64bit
_STATISTICS_WRITING_DATE_UT : 2016-09-10 00:50:18
_STATISTICS_TAGS : BPS DURATION NUMBER_OF_FRAMES NUMBER_OF_BYTES

Video
ID : 1
Format : AVC
Format/Info : Advanced Video Codec
Format profile : High@L4.1
Format settings, CABAC : Yes
Format settings, ReFrames : 9 frames
Codec ID : V_MPEG4/ISO/AVC
Duration : 2h 19mn
Bit rate : 5 500 Kbps
Width : 1 280 pixels
Height : 690 pixels
Display aspect ratio : 1.85:1
Frame rate mode : Constant
Frame rate : 23.976 fps
Color space : YUV
Chroma subsampling : 4:2:0
Bit depth : 8 bits
Scan type : Progressive
Bits/(Pixel*Frame) : 0.260
Stream size : 5.24 GiB (76%)
Writing library : x264 core 148 r2665kMod a01e339
Encoding settings : cabac=1 / ref=9 / deblock=1:-3:-3 / analyse=0x3:0x133 / me=umh / subme=11 / psy=1 / fade_compensate=0.00 / psy_rd=1.05:0.00 / mixed_ref=1 / me_range=32 / chroma_me=1 / trellis=2 / 8x8dct=1 / cqm=0 / deadzone=21,11 / fast_pskip=0 / chroma_qp_offset=-2 / threads=22 / lookahead_threads=3 / sliced_threads=0 / nr=0 / decimate=0 / interlaced=0 / bluray_compat=0 / constrained_intra=0 / fgo=0 / bframes=8 / b_pyramid=2 / b_adapt=2 / b_bias=0 / direct=3 / weightb=1 / open_gop=0 / weightp=2 / keyint=240 / keyint_min=24 / scenecut=40 / intra_refresh=0 / rc=2pass / mbtree=0 / bitrate=5500 / ratetol=1.0 / qcomp=0.70 / qpmin=0 / qpmax=69 / qpstep=4 / cplxblur=20.0 / qblur=0.5 / ip_ratio=1.20 / pb_ratio=1.20 / aq=3:0.85
Language : English
Default : Yes
Forced : No
DURATION : 02:19:55.346000000
NUMBER_OF_FRAMES : 201287
NUMBER_OF_BYTES : 5773186271
_STATISTICS_WRITING_APP : mkvmerge v8.3.0 ('Over the Horizon') 64bit
_STATISTICS_WRITING_DATE_UT : 2016-09-10 00:50:18
_STATISTICS_TAGS : BPS DURATION NUMBER_OF_FRAMES NUMBER_OF_BYTES

Audio
ID : 2
Format : DTS
Format/Info : Digital Theater Systems
Mode : 16
Format settings, Endianness : Big
Codec ID : A_DTS
Duration : 2h 19mn
Bit rate mode : Constant
Bit rate : 1 509 Kbps
Channel(s) : 6 channels
Channel positions : Front: L C R, Side: L R, LFE
Sampling rate : 48.0 KHz
Bit depth : 24 bits
Compression mode : Lossy
Stream size : 1.47 GiB (22%)
Language : English
Default : Yes
Forced : No

Menu
00:00:00.000 : en:00:00:00.000
00:08:19.499 : en:00:08:19.499
00:13:55.835 : en:00:13:55.835



General
Unique ID : 254556874579172357842313054283601288621 (0xBF81DEE82C1007A68361F7C9C1801DAD)
Complete name : A:\Free.State.of.Jones.2016.1080p.BDRip.mkv
Format : Matroska
Format version : Version 4 / Version 2
File size : 13.7 GiB
Duration : 2h 19mn
Overall bit rate : 14.0 Mbps
Movie name : Medusa @ HDChina
Encoded date : UTC 2016-09-10 18:12:39
Writing application : mkvmerge v8.3.0 ('Over the Horizon') 64bit
Writing library : libebml v1.3.1 + libmatroska v1.4.2
DURATION : 02:19:55.350000000
NUMBER_OF_FRAMES : 787064
NUMBER_OF_BYTES : 1583572768
_STATISTICS_WRITING_APP : mkvmerge v8.3.0 ('Over the Horizon') 64bit
_STATISTICS_WRITING_DATE_UT : 2016-09-10 18:12:39
_STATISTICS_TAGS : BPS DURATION NUMBER_OF_FRAMES NUMBER_OF_BYTES

Video
ID : 1
Format : AVC
Format/Info : Advanced Video Codec
Format profile : High@L4.1
Format settings, CABAC : Yes
Format settings, ReFrames : 4 frames
Codec ID : V_MPEG4/ISO/AVC
Duration : 2h 19mn
Bit rate : 12.5 Mbps
Width : 1 920 pixels
Height : 1 036 pixels
Display aspect ratio : 1.85:1
Frame rate mode : Constant
Frame rate : 23.976 fps
Color space : YUV
Chroma subsampling : 4:2:0
Bit depth : 8 bits
Scan type : Progressive
Bits/(Pixel*Frame) : 0.262
Stream size : 11.9 GiB (87%)
Writing library : x264 core 148 r2665kMod a01e339
Encoding settings : cabac=1 / ref=4 / deblock=1:-3:-3 / analyse=0x3:0x133 / me=umh / subme=11 / psy=1 / fade_compensate=0.00 / psy_rd=0.85:0.00 / mixed_ref=1 / me_range=48 / chroma_me=1 / trellis=2 / 8x8dct=1 / cqm=0 / deadzone=21,11 / fast_pskip=0 / chroma_qp_offset=-2 / threads=24 / lookahead_threads=4 / sliced_threads=0 / nr=0 / decimate=0 / interlaced=0 / bluray_compat=0 / constrained_intra=0 / fgo=0 / bframes=8 / b_pyramid=2 / b_adapt=2 / b_bias=0 / direct=3 / weightb=1 / open_gop=0 / weightp=2 / keyint=240 / keyint_min=24 / scenecut=40 / intra_refresh=0 / rc=2pass / mbtree=0 / bitrate=12500 / ratetol=1.0 / qcomp=0.70 / qpmin=0 / qpmax=69 / qpstep=4 / cplxblur=20.0 / qblur=0.5 / ip_ratio=1.20 / pb_ratio=1.20 / aq=3:0.80
Language : English
Default : Yes
Forced : No
DURATION : 02:19:55.346000000
NUMBER_OF_FRAMES : 201287
NUMBER_OF_BYTES : 13119622516
_STATISTICS_WRITING_APP : mkvmerge v8.3.0 ('Over the Horizon') 64bit
_STATISTICS_WRITING_DATE_UT : 2016-09-10 18:12:39
_STATISTICS_TAGS : BPS DURATION NUMBER_OF_FRAMES NUMBER_OF_BYTES

Audio
ID : 2
Format : DTS
Format/Info : Digital Theater Systems
Mode : 16
Format settings, Endianness : Big
Codec ID : A_DTS
Duration : 2h 19mn
Bit rate mode : Constant
Bit rate : 1 509 Kbps
Channel(s) : 6 channels
Channel positions : Front: L C R, Side: L R, LFE
Sampling rate : 48.0 KHz
Bit depth : 24 bits
Compression mode : Lossy
Stream size : 1.47 GiB (11%)
Language : English
Default : Yes
Forced : No

Menu
00:00:00.000 : en:00:00:00.000
00:08:19.499 : en:00:08:19.499
00:13:55.835 : en:00:13:55.835
00:22:14.250 : en:00:22:14.250
00:30:56.313 : en:00:30:56.313
00:37:39.924 : en:00:37:39.924
00:46:02.635 : en:00:46:02.635
00:49:49.195 : en:00:49:49.195
00:56:08.615 : en:00:56:08.615
01:05:06.027 : en:01:05:06.027
01:13:32.199 : en:01:13:32.199
01:19:58.752 : en:01:19:58.752
01:30:22.667 : en:01:30:22.667
01:36:43.172 : en:01:36:43.172
01:42:49.747 : en:01:42:49.747
01:50:23.492 : en:01:50:23.492
01:55:44.729 : en:01:55:44.729
02:02:43.731 : en:02:02:43.731
02:06:56.526 : en:02:06:56.526
02:13:11.942 : en:02:13:11.942




Screenshots BDRip

Free State of Jones (2016)

Free State of Jones (2016)

Free State of Jones (2016)


Screenshots BRRip

Free State of Jones (2016)

Free State of Jones (2016)

Free State of Jones (2016)


Screenshots BDRip 720p

Free State of Jones (2016)

Free State of Jones (2016)

Free State of Jones (2016)


Screenshots BDRip 1080p

Free State of Jones (2016)

Free State of Jones (2016)

Free State of Jones (2016)

BDRip
http://nitroflare.com/view/CA0D70DAAF81077/Free.State.of.Jones.2016.BDRip.part1.rar
http://nitroflare.com/view/E6CEED788D6063F/Free.State.of.Jones.2016.BDRip.part2.rar
http://nitroflare.com/view/8DFC1B684B0EB17/Free.State.of.Jones.2016.BDRip.part3.rar
BRRip
http://nitroflare.com/view/A9DD781187FB142/Free.State.of.Jones.2016.BRRip.part1.rar
http://nitroflare.com/view/61B17A177D93808/Free.State.of.Jones.2016.BRRip.part2.rar
http://nitroflare.com/view/D7A9A7BA98E3DA3/Free.State.of.Jones.2016.BRRip.part3.rar
http://nitroflare.com/view/D57403A5E0F1C29/Free.State.of.Jones.2016.BRRip.part4.rar
BDRip 720p
http://nitroflare.com/view/BD56A9253263361/Free.State.of.Jones.2016.720p.BDRip.part1.rar
http://nitroflare.com/view/17FE0630115A2AE/Free.State.of.Jones.2016.720p.BDRip.part2.rar
http://nitroflare.com/view/8BBDF0465298B2B/Free.State.of.Jones.2016.720p.BDRip.part3.rar
http://nitroflare.com/view/A8562703351774C/Free.State.of.Jones.2016.720p.BDRip.part4.rar
http://nitroflare.com/view/64E367E90D98330/Free.State.of.Jones.2016.720p.BDRip.part5.rar
http://nitroflare.com/view/B8FC81A065E2B4D/Free.State.of.Jones.2016.720p.BDRip.part6.rar
http://nitroflare.com/view/0C793FF21BF0B34/Free.State.of.Jones.2016.720p.BDRip.part7.rar
http://nitroflare.com/view/F41A3259C8B7260/Free.State.of.Jones.2016.720p.BDRip.part8.rar
BDRip 1080p
http://nitroflare.com/view/42ED617E1593385/Free.State.of.Jones.2016.1080p.BDRip.part01.rar
http://nitroflare.com/view/7CCEA2F9DFDD354/Free.State.of.Jones.2016.1080p.BDRip.part02.rar
http://nitroflare.com/view/998E76489FA238E/Free.State.of.Jones.2016.1080p.BDRip.part03.rar
http://nitroflare.com/view/8101A6A6769183B/Free.State.of.Jones.2016.1080p.BDRip.part04.rar
http://nitroflare.com/view/C8468ADE31D4167/Free.State.of.Jones.2016.1080p.BDRip.part05.rar
http://nitroflare.com/view/338DBC98094D686/Free.State.of.Jones.2016.1080p.BDRip.part06.rar
http://nitroflare.com/view/8D3AEBE952B54F6/Free.State.of.Jones.2016.1080p.BDRip.part07.rar
http://nitroflare.com/view/C40BAFEFC0F69D9/Free.State.of.Jones.2016.1080p.BDRip.part08.rar
http://nitroflare.com/view/2CB3B349D8D9D41/Free.State.of.Jones.2016.1080p.BDRip.part09.rar
http://nitroflare.com/view/6FE3F077F3EE500/Free.State.of.Jones.2016.1080p.BDRip.part10.rar
http://nitroflare.com/view/289C8893F607C92/Free.State.of.Jones.2016.1080p.BDRip.part11.rar
http://nitroflare.com/view/762C66FC6792DDB/Free.State.of.Jones.2016.1080p.BDRip.part12.rar
http://nitroflare.com/view/3D535BB08A2E02B/Free.State.of.Jones.2016.1080p.BDRip.part13.rar
http://nitroflare.com/view/834ECDEFA5C40FB/Free.State.of.Jones.2016.1080p.BDRip.part14.rar
http://nitroflare.com/view/5297BB221FEE0B8/Free.State.of.Jones.2016.1080p.BDRip.part15.rar