Subcategories

Free State of Jones (2016)

Posted By: JohnSmith
Free State of Jones (2016)

Free State of Jones (2016)
BDRip MD | AVI / XviD@1670 kb/s | 720x384 | 2h 19mn | 1.77 GB | Italian: MP3, 128 kb/s (2 ch)
Genre: Action | Biography | Drama | History | War

L'incredibile e vera storia di Newt Knight, contadino del sud degli States che durante la guerra civile si ribellò contro l'esercito della Confederazione. Unendosi a un gruppo di piccoli agricoltori locali e con l'aiuto degli schiavi della zona, Knight guidò una rivolta che portò la contea di Jones alla separazione dagli Stati della Confederazione. Le sue nozze con l'ex schiava Rachel contribuirono inoltre alla creazione della prima comunità di razza mista del dopoguerra.




General
Complete name : C:\Free.State.Of.Jones.2016.iTALiAN.MD.BDRip.XviD-FLASH.avi
Format : AVI
Format/Info : Audio Video Interleave
File size : 1.77 GiB
Duration : 2 h 19 min
Overall bit rate : 1 811 kb/s
Writing library : VirtualDub build 0/release

Video
ID : 0
Format : MPEG-4 Visual
Format profile : Advanced Simple@L5
Format settings, BVOP : 2
Format settings, QPel : No
Format settings, GMC : No warppoints
Format settings, Matrix : Default (H.263)
Codec ID : XVID
Codec ID/Hint : XviD
Duration : 2 h 19 min
Bit rate : 1 670 kb/s
Width : 720 pixels
Height : 384 pixels
Display aspect ratio : 1.85:1
Frame rate : 23.976 (24000/1001) FPS
Color space : YUV
Chroma subsampling : 4:2:0
Bit depth : 8 bits
Scan type : Progressive
Compression mode : Lossy
Bits/(Pixel*Frame) : 0.252
Stream size : 1.63 GiB (92%)
Writing library : XviD 67

Audio
ID : 1
Format : MPEG Audio
Format version : Version 1
Format profile : Layer 3
Mode : Joint stereo
Mode extension : MS Stereo
Codec ID : 55
Codec ID/Hint : MP3
Duration : 2 h 19 min
Bit rate mode : Constant
Bit rate : 128 kb/s
Channel(s) : 2 channels
Sampling rate : 48.0 kHz
Compression mode : Lossy
Stream size : 128 MiB (7%)
Alignment : Aligned on interleaves
Interleave, duration : 24 ms (0.58 video frame)
Interleave, preload duratio : 480 ms




Screenshots

Free State of Jones (2016)

Free State of Jones (2016)

Free State of Jones (2016)