Subcategories

Doc Zone - Dot Con (2014)

Posted By: notbanned
Doc Zone - Dot Con (2014)

Doc Zone - Dot Con (2014)
HDTV | 1280x720 | .MP4/AVC @ 3002 Kbps | 44mn 37s | Audio: English AAC 160 kbps, 2 channels | Subs: None | 1011 MiB
Genre: Documentary

The digital era is good for most people. But it is beyond good for con artists. The internet’s famous ability to connect everyone, everywhere, makes it ideal for scammers: they can find victims in a dozen countries, transfer the money they steal through a dozen further countries, and most importantly, remain completely anonymous while they’re doing it. Dot.Con goes inside the writhing underworld of online scams. We see just how prolific and inventive the cybercriminals are. Interpol says it is a trillion dollar a year crime. We witness the three-way dance of crooks, cops and victims. We talk to researchers and authorities who are only now gaining an understanding of the psychology at work in the most effective scams. We’ll see how we can fight back, in recommended and definitely not recommended ways. Dot.Con goes to England, where online vigilantes have turned the tables on scammers…Using exactly the same techniques the con artists do, they fight back at their would-be tormenters with a gusto that is both hilarious and deadly serious.


General
Complete name : Doc.Zone.Dot.Con.mp4
Format : MPEG-4
Format profile : Base Media
Codec ID : isom
File size : 1 011 MiB
Duration : 44mn 37s
Overall bit rate mode : Variable
Overall bit rate : 3 166 Kbps

Video
ID : 1
Format : AVC
Format/Info : Advanced Video Codec
Format profile : High@L4.1
Format settings, CABAC : No
Format settings, ReFrames : 1 frame
Format settings, GOP : M=1, N=12
Codec ID : avc1
Codec ID/Info : Advanced Video Coding
Duration : 44mn 37s
Bit rate : 3 002 Kbps
Width : 1 280 pixels
Height : 720 pixels
Display aspect ratio : 16:9
Frame rate mode : Constant
Frame rate : 23.976 fps
Color space : YUV
Chroma subsampling : 4:2:0
Bit depth : 8 bits
Scan type : Progressive
Bits/(Pixel*Frame) : 0.136
Stream size : 958 MiB (95%)
Language : English
Encoded date : UTC 2014-11-22 16:32:06
Tagged date : UTC 2014-11-22 16:32:06

Audio
ID : 2
Format : AAC
Format/Info : Advanced Audio Codec
Format profile : LC
Codec ID : 40
Duration : 44mn 37s
Bit rate mode : Variable
Bit rate : 160 Kbps
Channel(s) : 2 channels
Channel positions : Front: L R
Sampling rate : 48.0 KHz
Compression mode : Lossy
Stream size : 51.0 MiB (5%)
Encoded date : UTC 2014-11-22 16:32:06
Tagged date : UTC 2014-11-22 16:32:06


Screenshots:

Doc Zone - Dot Con (2014)

Doc Zone - Dot Con (2014)

Doc Zone - Dot Con (2014)

Doc Zone - Dot Con (2014)