Subcategories

Channel 4 - The Men with Many Wives (2014)

Posted By: notbanned
Channel 4 - The Men with Many Wives (2014)

Channel 4 - The Men with Many Wives (2014)
HDTV | 1280x720 | .MP4/AVC @ 3005 Kbps | 47mn 14s | Audio: English AAC 144 kbps, 2 channels | Subs: None | 1.04 GiB
Genre: Documentary

This revealing documentary explores the world of polygamous marriages among British Muslims. While polygamy is illegal under British law, it is permitted under Sharia law, and while it's unusual, some estimate that there are as many as 20,000 polygamous marriages among Muslims in the UK today. The programme examines the daily challenges of polygamous life and the motivation of those who are looking for another wife. It considers whether they are compelled by desire or tradition and meets those who are trying to make polygamy acceptable to mainstream UK society. The film poses difficult questions, not only around reconciling Muslim values with modern British society but also on questions of duty, love and betrayal.


General
Complete name : Ch4.The.Men.With.Many.Wives.mp4
Format : MPEG-4
Format profile : Base Media
Codec ID : isom
File size : 1.04 GiB
Duration : 47mn 14s
Overall bit rate mode : Variable
Overall bit rate : 3 156 Kbps

Video
ID : 1
Format : AVC
Format/Info : Advanced Video Codec
Format profile : High@L4.1
Format settings, CABAC : No
Format settings, ReFrames : 1 frame
Format settings, GOP : M=1, N=12
Codec ID : avc1
Codec ID/Info : Advanced Video Coding
Duration : 47mn 14s
Bit rate : 3 005 Kbps
Width : 1 280 pixels
Height : 720 pixels
Display aspect ratio : 16:9
Frame rate mode : Constant
Frame rate : 25.000 fps
Color space : YUV
Chroma subsampling : 4:2:0
Bit depth : 8 bits
Scan type : Progressive
Bits/(Pixel*Frame) : 0.130
Stream size : 1 016 MiB (95%)
Encoded date : UTC 2014-09-25 20:53:40
Tagged date : UTC 2014-09-25 20:53:40

Audio
ID : 2
Format : AAC
Format/Info : Advanced Audio Codec
Format profile : LC
Codec ID : 40
Duration : 47mn 14s
Bit rate mode : Variable
Bit rate : 144 Kbps
Channel(s) : 2 channels
Channel positions : Front: L R
Sampling rate : 48.0 KHz
Compression mode : Lossy
Stream size : 49.2 MiB (5%)
Language : English
Encoded date : UTC 2014-09-25 20:53:40
Tagged date : UTC 2014-09-25 20:53:40


Screenshots:

Channel 4 - The Men with Many Wives (2014)

Channel 4 - The Men with Many Wives (2014)