Subcategories

Bettie Page Reveals All (2012)

Posted By: Rare-1
Bettie Page Reveals All (2012)

Bettie Page Reveals All (2012)
DVDRip | Lang: English | MKV | 720x480 | AVC, @ 2000 Kbps, 29.970 fps | 01:41:27 | Subs: English, (Hardcoded) | 1.74 GB
Audio: AC3, 48000 Hz, 5:1, 448 Kbps
Genre: Documentary | USA

The world's greatest pinup model and cult icon, Bettie Page, recounts the true story of how her free expression overcame government witch-hunts to help launch America's sexual revolution

Through narrating her own life story, Bettie Page recounts how her unabashed sexual expression and sexually provocative fetish poses set the stage for the 1960s sexual revolution and ushered in a modern era in fashion and pop culture. As a woman in an era when women were second-class citizens, Bettie Page was continually knocked down throughout her life. But, by her strength of character, she always picked herself back up to become the world’s greatest pinup model and international sex icon.

Make way for the most photographed pinup, nude, and fetish model of the 20th century: Bettie Page. Her exuberant sensuality fired men's deepest desires while singeing camera lenses. The attitude Bettie dished out in her fetish photos was so incendiary that she was targeted by a 1955 Senate investigative committee as a source of teenage-induced depravity. How would that committee feel if they knew her body of photos would be credited with helping to inspire the Sexual and Feminist Revolutions of the 1960s and 1970s? From countless magazine covers, to religious crusading, to incarceration for mental illness, this is the enthralling true tale of Eisenhower Presidential Era model, Bettie Page. It transcends the wildest of fictionalized notions. Her life experiences ranged from idyllic legends to nightmarish realities. All the while, Bettie hid her private life from fans — until Bettie Page Reveals All.

IMDB 7/10 from 149 users

Director: Mark Mori
Writer: Doug Miller
Actors: Bettie Page, Dita Von Teese, Hugh M. Hefner, Rebecca Romijn
Rated: R
Runtime: 101 min


Bettie Page Reveals All (2012)


More Screenshots:

Bettie Page Reveals All (2012)


General
Unique ID : 182316335932841167601528572432328125246 (0x8928D95CCF17209499580750201F6B3E)
Complete name : I:\Bettie Page Reveals All.2012.Mark Mori.mkv
Format : Matroska
Format version : Version 2
File size : 1.74 GiB
Duration : 1h 41mn
Overall bit rate : 2 454 Kbps
Encoded date : UTC 2014-04-29 12:02:32
Writing application : mkvmerge v6.5.0 ('Isn't she lovely') built on Oct 20 2013 12:50:05
Writing library : libebml v1.3.0 + libmatroska v1.4.1

Video
ID : 1
Format : AVC
Format/Info : Advanced Video Codec
Format profile : High@L4.1
Format settings, CABAC : Yes
Format settings, ReFrames : 12 frames
Codec ID : V_MPEG4/ISO/AVC
Duration : 1h 41mn
Bit rate : 2 000 Kbps
Width : 720 pixels
Height : 480 pixels
Display aspect ratio : 1.85:1
Frame rate mode : Constant
Frame rate : 29.970 fps
Standard : NTSC
Color space : YUV
Chroma subsampling : 4:2:0
Bit depth : 8 bits
Scan type : Progressive
Bits/(Pixel*Frame) : 0.193
Stream size : 1.39 GiB (80%)
Writing library : x264 core 138 r2358 9e941d1
Encoding settings : cabac=1 / ref=12 / deblock=1:-3:-3 / analyse=0x3:0x133 / me=umh / subme=9 / psy=1 / psy_rd=1.00:0.15 / mixed_ref=1 / me_range=16 / chroma_me=1 / trellis=2 / 8x8dct=1 / cqm=0 / deadzone=21,11 / fast_pskip=1 / chroma_qp_offset=-3 / threads=6 / lookahead_threads=1 / sliced_threads=0 / nr=0 / decimate=1 / interlaced=0 / bluray_compat=0 / constrained_intra=0 / bframes=5 / b_pyramid=2 / b_adapt=2 / b_bias=0 / direct=3 / weightb=1 / open_gop=0 / weightp=2 / keyint=300 / keyint_min=29 / scenecut=40 / intra_refresh=0 / rc_lookahead=60 / rc=2pass / mbtree=1 / bitrate=2000 / ratetol=1.0 / qcomp=0.60 / qpmin=0 / qpmax=69 / qpstep=4 / cplxblur=20.0 / qblur=0.5 / ip_ratio=1.40 / aq=1:1.00
Language : English
Default : Yes
Forced : No

Audio
ID : 2
Format : AC-3
Format/Info : Audio Coding 3
Mode extension : CM (complete main)
Format settings, Endianness : Big
Codec ID : A_AC3
Duration : 1h 41mn
Bit rate mode : Constant
Bit rate : 448 Kbps
Channel(s) : 6 channels
Channel positions : Front: L C R, Side: L R, LFE
Sampling rate : 48.0 KHz
Bit depth : 16 bits
Compression mode : Lossy
Stream size : 325 MiB (18%)
Language : English
Default : Yes
Forced : No

Text
ID : 3
Format : VobSub
Muxing mode : zlib
Codec ID : S_VOBSUB
Codec ID/Info : The same subtitle format used on DVDs
Language : English
Default : Yes
Forced : No

Menu
00:00:00.000 : en:Chapter 01
00:05:29.267 : en:Chapter 02
00:09:07.567 : en:Chapter 03
00:13:57.634 : en:Chapter 04
00:19:59.968 : en:Chapter 05
00:27:50.669 : en:Chapter 06
00:34:44.669 : en:Chapter 07
00:40:13.036 : en:Chapter 08
00:46:47.436 : en:Chapter 09
00:53:04.037 : en:Chapter 10
00:59:09.638 : en:Chapter 11
01:03:58.339 : en:Chapter 12
01:13:00.207 : en:Chapter 13
01:17:47.974 : en:Chapter 14
01:22:23.942 : en:Chapter 15
01:30:38.743 : en:Chapter 16
01:37:33.077 : en:Chapter 17
01:41:09.277 : en:Chapter 18


Many Thanks to Original uploader.


For More Rare Movies Check out my blog!

Download Links :

No Mirrors Please