Subcategories

BBC - My Mediterranean with Adrian Chiles (2016)

Posted By: notbanned
BBC - My Mediterranean with Adrian Chiles (2016)

BBC - My Mediterranean with Adrian Chiles (2016)
HDTV | 1280x720 | .MP4/AVC @ 2996 Kbps | 2x~59min | Audio: English AAC 160 kbps, 2 channels | Subs: English | 2.6 GiB
Genre: Documentary

Adrian Chiles converted to Catholicism ten years ago, but wonders whether his choice of church was an accident of birth and geography. If he had been born in Istanbul or Jerusalem, would he have been equally happy being a Muslim or a Jew?
Part 1:
In this first episode, he visits the stunning Dalmatian coast, where he meets up with his Croatian mum and reveals how he got the nickname Holy Joe. Next stop is Istanbul, where he has fun in the Grand Bazaar before heading out on the Bosphorus with a Muslim fisherman. During Eid al-Adha, a major Islamic festival, Adrian struggles to watch the celebratory sacrifice. He travels to Jerusalem for the Jewish festival of Sukkot, and then moves on to Tel-Aviv to get drunk with a gay, atheist, Jewish celebrity chef. His final stop is an Evangelical concert by the Dead Sea, attended by Christians from all over the world.

Part 2:
This episode finds Adrian in Rome, riding the ubiquitous Vespa with his favourite priest, Father Gianni, on the pillion. The pair speculate on whether having a priest accompanying him to the pearly gates improves or damages Adrian's chances of entry to heaven. Adrian then joins the faithful in St Peter's Square to listen to the man he describes as 'chairman and chief executive' of his own religion. Later, an 80-year-old cardinal tries to remain unflustered as Adrian makes his first confession in eight years. It takes a while. He observes the Sabbath with a Jewish family, but his brief flirtation with Judaism is cut short when he learns that becoming a Jew is not quite as simple as wanting to join. He cooks with the nuns of Marseille, and visits a Roman Catholic school where 80% of the children are Muslims and where he declares the head teacher to be 'the most inspiring person I have ever met'.


General
Complete name : BBC.My.Mediterranean.With.Adrian.Chiles.1of2.mp4
Format : MPEG-4
Format profile : Base Media
Codec ID : isom
File size : 1.30 GiB
Duration : 59mn 9s
Overall bit rate mode : Variable
Overall bit rate : 3 157 Kbps

Video
ID : 1
Format : AVC
Format/Info : Advanced Video Codec
Format profile : High@L4.1
Format settings, CABAC : Yes
Format settings, ReFrames : 4 frames
Codec ID : avc1
Codec ID/Info : Advanced Video Coding
Duration : 59mn 9s
Bit rate : 3 000 Kbps
Maximum bit rate : 12.5 Mbps
Width : 1 280 pixels
Height : 720 pixels
Display aspect ratio : 16:9
Frame rate mode : Constant
Frame rate : 25.000 fps
Color space : YUV
Chroma subsampling : 4:2:0
Bit depth : 8 bits
Scan type : Progressive
Bits/(Pixel*Frame) : 0.130
Stream size : 1.24 GiB (95%)
Encoding settings : cabac=1 / ref=1 / deblock=1:0:0 / analyse=0x3:0x3 / me=dia / subme=1 / psy=1 / psy_rd=1.00:0.00 / mixed_ref=0 / me_range=16 / chroma_me=1 / trellis=0 / 8x8dct=1 / cqm=0 / deadzone=21,11 / fast_pskip=1 / chroma_qp_offset=0 / threads=3 / lookahead_threads=1 / sliced_threads=0 / nr=0 / decimate=1 / interlaced=0 / bluray_compat=0 / constrained_intra=0 / bframes=3 / b_pyramid=2 / b_adapt=1 / b_bias=0 / direct=1 / weightb=1 / open_gop=0 / weightp=1 / keyint=250 / keyint_min=25 / scenecut=40 / intra_refresh=0 / rc_lookahead=0 / rc=abr / mbtree=0 / bitrate=3000 / ratetol=1.0 / qcomp=0.60 / qpmin=0 / qpmax=69 / qpstep=4 / vbv_maxrate=62500 / vbv_bufsize=78125 / nal_hrd=none / filler=0 / ip_ratio=1.40 / pb_ratio=1.30 / aq=1:1.00
Tagged date : UTC 2016-01-11 00:16:28
Color range : Limited
Color primaries : BT.709
Transfer characteristics : BT.709
Matrix coefficients : BT.709

Audio
ID : 2
Format : AAC
Format/Info : Advanced Audio Codec
Format profile : LC
Codec ID : 40
Duration : 59mn 9s
Bit rate mode : Variable
Bit rate : 160 Kbps
Maximum bit rate : 177 Kbps
Channel(s) : 2 channels
Channel positions : Front: L R
Sampling rate : 48.0 KHz
Compression mode : Lossy
Stream size : 67.8 MiB (5%)
Language : English
Encoded date : UTC 2016-01-11 00:16:20
Tagged date : UTC 2016-01-11 00:16:28

Text
ID : 3
Format : Timed Text
Codec ID : tx3g
Duration : 58mn 39s
Bit rate mode : Variable
Bit rate : 113 bps
Stream size : 48.4 KiB (0%)
Encoded date : UTC 2016-01-11 00:16:28
Tagged date : UTC 2016-01-11 00:16:28


Screenshots:

BBC - My Mediterranean with Adrian Chiles (2016)

BBC - My Mediterranean with Adrian Chiles (2016)

BBC - My Mediterranean with Adrian Chiles (2016)

BBC - My Mediterranean with Adrian Chiles (2016)